Поиск

2022 Simon Goff & Katie Melua - Aerial Objects {Modern} [24-48]

2022 Simon Goff & Katie Melua - Aerial Objects {Modern} [24-48]
Стили:
Дата издания диска:
15 июля 2022
Носитель:
WEB
Формат:
PCM
Тип рипа:
tracks
Контейнер:
FLAC (*.flac)
Количество каналов:
2.0
Разрядность/ЧД:
24/48
Битрейт аудио:
lossless
Время звучания:
00:31:29
Наличие сканов:
только обложка

Треклист:

1. Tbilisi Airport (04:43)
2. It Happened (04:58)
3. Hotel Stamba (05:17)
4. Textures of Memories (04:40)
5. Aerial Objects (05:06)
6. Millions of Things (06:49)

Состав:
Лог проверки качества
foobar2000 1.6.6 / Dynamic Range Meter 1.1.1
log date: 2022-07-16 10:28:06
--------------------------------------------------------------------------------
Analyzed: Simon Goff & Katie Melua / Aerial Objects
--------------------------------------------------------------------------------
DR         Peak         RMS     Duration Track
--------------------------------------------------------------------------------
DR7       -0.92 dB   -11.74 dB      4:43 01-Tbilisi Airport
DR7       -0.92 dB   -10.95 dB      4:58 02-It Happened
DR7       -0.92 dB   -10.30 dB      5:17 03-Hotel Stamba
DR7       -0.92 dB   -10.75 dB      4:40 04-Textures of Memories
DR7       -0.92 dB   -11.10 dB      5:06 05-Aerial Objects
DR7       -0.92 dB   -13.50 dB      6:49 06-Millions of Things
--------------------------------------------------------------------------------
Number of tracks:  6
Official DR value: DR7
Samplerate:        48000 Hz
Channels:          2
Bits per sample:   24
Bitrate:           1447 kbps
Codec:             FLAC
================================================================================
21:58
520
Нет комментариев. Ваш будет первым!