Поиск

2009 Fred Anderson - 21st Century Chase (2019) {Delmark} [24-44,1]

2009 Fred Anderson - 21st Century Chase (2019) {Delmark} [24-44,1]
Стили:
Дата записи диска:
22 марта 2009
Место записи:
The Velvet Lounge, Chicago, Il, USA
Дата издания диска:
7 января 2009
Номер по каталогу:
DE 589
Носитель:
WEB
Формат:
PCM
Тип рипа:
tracks
Контейнер:
FLAC (*.flac)
Количество каналов:
2.0
Разрядность/ЧД:
24/44,1
Битрейт аудио:
lossless
Время звучания:
01:24:24
Наличие сканов:
только обложка

Треклист:

01 - 21st Century Chase Pt. I (00:37:12)
02 - 21st Century Chase Pt. II (00:15:09)
03 - Gone But Not Forgotten (00:15:32)
04 - Ode To Alvin Fielder (00:16:30)

Состав:
  • Fred Anderson Sax — Tenor
  • Harrison Bankhead — Bass
  • Kidd Jordan Sax — Tenor
  • Jeff Parker — Guitar
  • Chad Taylor — Drums
Лог проверки качества
foobar2000 1.4.2 / Dynamic Range Meter 1.1.1
log date: 2021-08-07 21:02:42
--------------------------------------------------------------------------------
Analyzed: Fred Anderson / 21st Century Chase
--------------------------------------------------------------------------------
DR         Peak         RMS     Duration Track
--------------------------------------------------------------------------------
DR6        0.00 dB    -8.00 dB     37:13 01-21st Century Chase Pt. I
DR6        0.00 dB    -9.49 dB     15:09 02-21st Century Chase Pt. II
DR6        0.00 dB    -9.16 dB     15:32 03-Gone But Not Forgotten
DR6        0.00 dB    -9.34 dB     16:30 04-Ode To Alvin Fielder
--------------------------------------------------------------------------------
Number of tracks:  4
Official DR value: DR6
Samplerate:        44100 Hz
Channels:          2
Bits per sample:   24
Bitrate:           1606 kbps
Codec:             FLAC
================================================================================
По всем вопросам пишите личное сообщение пользователю M0p94ok.
17:22
159
Нет комментариев. Ваш будет первым!