Поиск

2007 Ari Brown - Live at the Green Mill {Delmark} [24-48]

2007 Ari Brown - Live at the Green Mill {Delmark} [24-48]
Дата записи диска:
22 июня - 23 июня 2007
Место записи:
The Green Mill, Chicago, Il, USA
Дата издания диска:
13 ноября 2007
Носитель:
WEB
Формат:
PCM
Тип рипа:
tracks
Контейнер:
FLAC (*.flac)
Количество каналов:
2.0
Разрядность/ЧД:
24/48
Битрейт аудио:
lossless
Время звучания:
01:18:39
Наличие сканов:
только обложка

01 - Richard's Tune (13:50)
02 - One For Skip (14:05)
03 - Waltz Of The Prophets (11:49)
04 - Shorter's Vibes (11:02)
05 - Two Gun V (06:38)
06 - Kylie's Lullaby (11:43)
07 - Evod (09:29)

Состав:
  • Ari Brown     Composer, Flute, Sax (Soprano), Sax (Tenor)
  • Kirk Brown     Piano
  • Eric Butkus     Engineer, Mixing
  • Dr. Cuz     Percussion
  • Yosef Ben Israel     Bass, Guitar (Bass)
  • Michael Jackson     Liner Notes, Photography
  • Dave Katzman     Mixing
  • Robert G. Koester     Audio Production, Producer, Supervisor
  • Avreeayl Ra     Drums
  • Steve Wagner     Audio Production, Engineer, Mixing, Producer, Supervisor
  • Pharez Whitted     Trumpet
Лог проверки качества
foobar2000 1.4.2 / Dynamic Range Meter 1.1.1
log date: 2021-08-07 21:15:07
--------------------------------------------------------------------------------
Analyzed: Ari Brown / Live at the Green Mill
--------------------------------------------------------------------------------
DR         Peak         RMS     Duration Track
--------------------------------------------------------------------------------
DR10       0.00 dB   -12.08 dB     13:51 01-Richard's Tune
DR17      -0.25 dB   -21.61 dB     14:05 02-One For Skip
DR11       0.00 dB   -14.17 dB     11:50 03-Waltz Of The Prophets
DR8       -0.06 dB   -10.97 dB     11:03 04-Shorter's Vibes
DR11       0.00 dB   -13.54 dB      6:38 05-Two Gun V
DR14      -0.03 dB   -16.97 dB     11:43 06-Kylie's Lullaby
DR8        0.00 dB   -10.37 dB      9:29 07-Evod
--------------------------------------------------------------------------------
Number of tracks:  7
Official DR value: DR11
Samplerate:        48000 Hz
Channels:          2
Bits per sample:   24
Bitrate:           1710 kbps
Codec:             FLAC
================================================================================
Приватный:
Нет (DHT включён)
Размер:
907.40 Мб (951,479,072 байт) » файлов: 8
Участники:
5 раздают, 0 качают (5 участников всего)
Внешние участники:
2 раздают, 1 качают (3 участников всего) [ Обновить ]
22:42
398
Нет комментариев. Ваш будет первым!