Поиск

2007 Nicole Mitchell's Black Earth Ensemble - Black Unstoppable (Live at the Velvet Lounge) {Delmark} [24-44.1]

2007 Nicole Mitchell's Black Earth Ensemble - Black Unstoppable (Live at the Velvet Lounge) {Delmark} [24-44.1]
Дата записи диска:
28 мая и 30 мая 2007
Место записи:
Riverside Studio, Chicago, Il, USA
Носитель:
WEB
Формат:
PCM
Тип рипа:
tracks
Контейнер:
FLAC (*.flac)
Количество каналов:
2.0
Разрядность/ЧД:
24/44,1
Битрейт аудио:
lossless
Время звучания:
01:21:53
Наличие сканов:
только обложка

Треклист:

01 - Black Unstoppable (12:38)
02 - Cause and Effect (12:05)
03 - February (07:45)
04 - Life Wants You to Love (12:38)
05 - Love Has No Boundaries (14:19)
06 - Thanking The Universe (11:57)
07 - The Creator Has Other Plans for Me (10:27)

Состав:
  • Bass – Josh Abrams
  • Cello, Shekere [Shakere] – Tomeka Reid
  • Drums – Marcus Evans (2)
  • Flute, Flute [Alto], Piccolo Flute – Nicole Mitchell
  • Guitar – Jeff Parker
  • Liner Notes – Kalamu Ya Salaam
  • Mixed By – Dave Katzman, Eric Butkus, Steve Wagner
  • Producer – Nicole Mitchell, Steve Wagner
  • Recorded By – Steve Wagner
  • Supervised By [Album Production & Supervision] – Robert G. Koester, Steve Wagner
  • Tenor Saxophone, Percussion – David Boykin
  • Trumpet, Flugelhorn – David Young (5)
  • Recorded by Steve Wagner.
  • Mixed by Steve Wagner, Eric Butkus and Dave Katzman.
Лог проверки качества
foobar2000 1.4.2 / Dynamic Range Meter 1.1.1
log date: 2021-08-07 20:53:36
--------------------------------------------------------------------------------
Analyzed: Nicole Mitchell's Black Earth Ensemble / Black Unstoppable
--------------------------------------------------------------------------------
DR         Peak         RMS     Duration Track
--------------------------------------------------------------------------------
DR12       0.00 dB   -16.30 dB     12:38 01-Black Unstoppable
DR11       0.00 dB   -12.87 dB     12:05 02-Cause and Effect
DR13      -0.08 dB   -16.05 dB      7:46 03-February
DR12       0.00 dB   -14.39 dB     12:39 04-Life Wants You to Love
DR11       0.00 dB   -14.39 dB     14:19 05-Love Has No Boundaries
DR9        0.00 dB   -12.77 dB     11:58 06-Thanking The Universe
DR11       0.00 dB   -13.68 dB     10:28 07-The Creator Has Other Plans for Me
--------------------------------------------------------------------------------
Number of tracks:  7
Official DR value: DR11
Samplerate:        44100 Hz
Channels:          2
Bits per sample:   24
Bitrate:           1569 kbps
Codec:             FLAC
================================================================================
По всем вопросам пишите личное сообщение пользователю M0p94ok.
21:59
164
Нет комментариев. Ваш будет первым!