Поиск

2021 Bacao Rhythm & Steel Band - Expansions {Big Crown} [24-44.1]

2021 Bacao Rhythm & Steel Band - Expansions {Big Crown} [24-44.1]
Место записи:
Mocambo, Hamburg, Germany
Дата издания диска:
16 июня 2021
Носитель:
WEB
Формат:
PCM
Тип рипа:
tracks
Контейнер:
FLAC (*.flac)
Количество каналов:
2.0
Разрядность/ЧД:
24/44,1
Битрейт аудио:
lossless
Время звучания:
00:36:33
Наличие сканов:
только обложка

01. Tough Victory  03:10
02. Space  02:31
03. Raise It Up  02:37
04. My Jamaican Dub  02:39
05. I Need Somebody To Love Tonight  04:02
06. Dirt Off Your Shoulder  02:52
07. Getting Nasty  02:57
08. Blow Your Cover  02:39
09. Represent  03:19
10. The Healer  02:50
11. Les Fleurs  03:24
12. Squaring The Circles  03:26

Состав:
  • Bass Guitar – Björn Wagner, John Reed (33), Tim Grunwald, Victor Kohn
  • Clavinet – Hank Dettweiler
  • Co-producer – Steffen Wagner
  • Drums – Guillaume Le Cahain, John Reed (33), Lucas Kochbeck, Sascha Weise, Shawn Lee
  • Electric Guitar – Björn Wagner
  • Electric Organ [Philicorda] – Hank Dettweiler
  • Glockenspiel – Hank Dettweiler
  • Mellotron – Hank Dettweiler
  • Percussion – Lucas Kochbeck, Paul Elliott (24)
  • Producer – Björn Wagner
  • Recorded By – Björn Wagner
  • Saxophone – Bernhard Hümmer
  • Steel Drums [Single Tenor & Double Second Steelpans] – Björn Wagner, Hank Dettweiler
  • Synthesizer – Hank Dettweiler
  • Trombone – Ben Greenslade-Stanton
  • Trumpet – Ben Greenslade-Stanton, Hans Christian Stephan, Sebastian Drescher
  • Tuba – Ben Greenslade-Stanton
Лог проверки качества
foobar2000 1.4.2 / Dynamic Range Meter 1.1.1
log date: 2021-08-03 14:20:29
--------------------------------------------------------------------------------
Analyzed: Bacao Rhythm & Steel Band / Expansions
--------------------------------------------------------------------------------
DR         Peak         RMS     Duration Track
--------------------------------------------------------------------------------
DR11      -0.54 dB   -13.12 dB      3:11 01-Tough Victory
DR10      -0.54 dB   -12.34 dB      2:32 02-Space
DR11      -0.73 dB   -12.38 dB      2:37 03-Raise It Up
DR11      -0.60 dB   -12.66 dB      2:40 04-My Jamaican Dub
DR11      -0.66 dB   -12.30 dB      4:02 05-I Need Somebody To Love Tonight
DR11      -1.00 dB   -12.74 dB      2:52 06-Dirt Off Your Shoulder
DR10      -0.54 dB   -12.19 dB      2:58 07-Getting Nasty
DR12      -0.54 dB   -13.14 dB      2:40 08-Blow Your Cover
DR10      -1.28 dB   -12.32 dB      3:19 09-Represent
DR10      -1.13 dB   -11.82 dB      2:51 10-The Healer
DR10      -1.39 dB   -12.88 dB      3:25 11-Les Fleurs
DR11      -1.33 dB   -13.36 dB      3:26 12-Squaring The Circles
--------------------------------------------------------------------------------
Number of tracks:  12
Official DR value: DR11
Samplerate:        44100 Hz
Channels:          2
Bits per sample:   24
Bitrate:           1454 kbps
Codec:             FLAC
================================================================================
19:45
463
Нет комментариев. Ваш будет первым!