Поиск

2007 Sylvain Beuf - Soul Notes

2007 Sylvain Beuf - Soul Notes
Страна-производитель диска (релиза):
France
Дата записи диска:
18-20 декабря 2000
Дата издания диска:
4 июня 2007
Номер по каталогу:
Y 226 139
Носитель:
CD
Битрейт аудио:
lossless
Аудиокодек:
FLAC (*.flac)
Тип рипа:
tracks+.cue
Время звучания:
59:18
Наличие сканов:
  • да
Релизёр (источник):
m@rtin
Треклист:
01. Sans escale 4:32
02. Soul Notes 8:29
03. Céleste 7:20
04. Solo 3:42
05. Éternité 5:25
06. Ravacan 5:29
07. Besame mucho 5:34
08. Raphaël Song 7:17
09. Espérance 6:23
10. Airegin 5:07
Состав:
  • Sylvain Beuf Saxophone
  • Gérard De Haro Engineer
  • Laurent Robin Drums
  • Manuel Rocheman Piano
  • François Verly Percussion
  • Christophe Wallemme Contrabass
Лог создания рипа
EAC extraction logfile from 24. June 2007, 15:55 for CD
Sylvain Beuf / Soul Notes (2001) [FLAC]
Used drive : HL-DT-STDVDRAM GSA-H10N Adapter: 2 ID: 0
Read mode : Secure with NO C2, accurate stream, disable cache
Read offset correction : 102
Overread into Lead-In and Lead-Out : No
Used output format : Internal WAV Routines
44.100 Hz; 16 Bit; Stereo
Other options :
Fill up missing offset samples with silence : Yes
Delete leading and trailing silent blocks : No
Native Win32 interface for Win NT & 2000
Track 1
Filename E:\01 - Sans Escale.wav
Pre-gap length 0:00:02.00
Peak level 99.3 %
Track quality 100.0 %
Test CRC E8204C16
Copy CRC E8204C16
Copy OK
Track 2
Filename E:\02 - Soul Notes.wav
Pre-gap length 0:00:03.84
Peak level 89.1 %
Track quality 99.9 %
Test CRC DA52104E
Copy CRC DA52104E
Copy OK
Track 3
Filename E:\03 - Celeste.wav
Pre-gap length 0:00:04.30
Peak level 99.9 %
Track quality 100.0 %
Test CRC CB75353C
Copy CRC CB75353C
Copy OK
Track 4
Filename E:\04 - Solo.wav
Pre-gap length 0:00:04.64
Peak level 70.3 %
Track quality 99.9 %
Test CRC 0231E656
Copy CRC 0231E656
Copy OK
Track 5
Filename E:\05 - Eternite.wav
Peak level 99.9 %
Track quality 100.0 %
Test CRC 4C196D71
Copy CRC 4C196D71
Copy OK
Track 6
Filename E:\06 - Ravacan.wav
Pre-gap length 0:00:04.80
Peak level 100.0 %
Track quality 100.0 %
Test CRC 2109BCF9
Copy CRC 2109BCF9
Copy OK
Track 7
Filename E:\07 - Besame Mucho.wav
Peak level 99.9 %
Track quality 100.0 %
Test CRC 485BDC56
Copy CRC 485BDC56
Copy OK
Track 8
Filename E:\08 - Raphael Song.wav
Pre-gap length 0:00:05.10
Peak level 99.9 %
Track quality 100.0 %
Test CRC A546468F
Copy CRC A546468F
Copy OK
Track 9
Filename E:\09 - Esperance.wav
Pre-gap length 0:00:03.82
Peak level 84.1 %
Track quality 100.0 %
Test CRC 875A66FB
Copy CRC 875A66FB
Copy OK
Track 10
Filename E:\10 - Airegin.wav
Pre-gap length 0:00:03.82
Peak level 99.9 %
Track quality 100.0 %
Test CRC 4A7FB15D
Copy CRC 4A7FB15D
Copy OK
No errors occured
End of status report
Лог проверки качества
<spoiler title="Лог проверки качества">Started at: понедельник, 01. 06. 2009. - 8:17.51
10 files found
01 -===- H:\Sylvain Beuf - Soul Notes (2001) [FLAC]\01 - Sans Escale.flac
Extracted successfully
Conclusion: this track is CDDA with probability 100%
Tempfile successfully deleted.
02 -===- H:\Sylvain Beuf - Soul Notes (2001) [FLAC]\02 - Soul Notes.flac
Extracted successfully
Conclusion: this track is CDDA with probability 100%
Tempfile successfully deleted.
03 -===- H:\Sylvain Beuf - Soul Notes (2001) [FLAC]\03 - Celeste.flac
Extracted successfully
Conclusion: this track is CDDA with probability 100%
Tempfile successfully deleted.
04 -===- H:\Sylvain Beuf - Soul Notes (2001) [FLAC]\04 - Solo.flac
Extracted successfully
Conclusion: this track is CDDA with probability 87%
Tempfile successfully deleted.
05 -===- H:\Sylvain Beuf - Soul Notes (2001) [FLAC]\05 - Eternite.flac
Extracted successfully
Conclusion: this track is CDDA with probability 99%
Tempfile successfully deleted.
06 -===- H:\Sylvain Beuf - Soul Notes (2001) [FLAC]\06 - Ravacan.flac
Extracted successfully
Conclusion: this track is CDDA with probability 100%
Tempfile successfully deleted.
07 -===- H:\Sylvain Beuf - Soul Notes (2001) [FLAC]\07 - Besame Mucho.flac
Extracted successfully
Conclusion: this track is CDDA with probability 100%
Tempfile successfully deleted.
08 -===- H:\Sylvain Beuf - Soul Notes (2001) [FLAC]\08 - Raphael Song.flac
Extracted successfully
Conclusion: this track is CDDA with probability 100%
Tempfile successfully deleted.
09 -===- H:\Sylvain Beuf - Soul Notes (2001) [FLAC]\09 - Esperance.flac
Extracted successfully
Conclusion: this track is CDDA with probability 99%
Tempfile successfully deleted.
10 -===- H:\Sylvain Beuf - Soul Notes (2001) [FLAC]\10 - Airegin.flac
Extracted successfully
Conclusion: this track is CDDA with probability 100%
Tempfile successfully deleted.
Finished at: понедельник, 01. 06. 2009. - 8:24.55 (operation time: 0:07.04)</spoiler>
Приватный:
Нет (DHT включён)
Размер:
422.39 Мб (442,905,688 байт) » файлов: 20
Участники:
0 раздают, 0 качают (0 участников всего)
Внешние участники:
2 раздают, 1 качают (3 участников всего) [ Обновить ]
08:13
132
RSS
Нет комментариев. Ваш будет первым!