Поиск

2002 John Abercrombie - Cat'n'Mouse {ECM 1770 / 014 001-2}

2002 John Abercrombie - Cat'n'Mouse {ECM 1770 / 014 001-2}
Стили:
Страна-производитель диска (релиза):
Germany
Дата записи диска:
декабрь 2000
Дата издания диска:
26 февраля 2002
Издатель (лейбл):
Номер по каталогу:
ECM 1770 / 014 001-2
Носитель:
CD
Битрейт аудио:
lossless
Аудиокодек:
APE (*.ape)
Тип рипа:
image+.cue
Время звучания:
59:52
Наличие сканов:
  • нет
Релизёр (источник):
dragon13
Треклист:

01. Nice Idea (10:57)
02. Convolution (5:34)
03. String Thing (4:02)
04. Soundtrack (8:06)
05. Third Stream Samba (8:45)
06. On the Loose (6:00)
07. Stop and Go (7:04)
08. Show of Hands (9:18)

Состав:
  • John Abercrombie Composer, Guitar
  • Joey Baron Composer, Drums
  • Manfred Eicher Producer
  • James Farber Engineer
  • Deborah Feingold Liner Notes
  • Mark Feldman Composer, Violin
  • Marc Johnson Composer, Double Bass
  • Anders Jormin Primary Artist
  • Sascha Kleis Design
  • Tom Rainey Primary Artist
Exact Audio Copy V0.99 prebeta 4 from 23. January 2008
EAC extraction logfile from 9. June 2009, 16:29
John Abercrombie / Cat 'n' Mouse
Used drive : HL-DT-STDVD-RAM GSA-H55N Adapter: 0 ID: 0
Read mode : Secure
Utilize accurate stream : Yes
Defeat audio cache : Yes
Make use of C2 pointers : No
Read offset correction : 102
Overread into Lead-In and Lead-Out : No
Fill up missing offset samples with silence : Yes
Delete leading and trailing silent blocks : No
Null samples used in CRC calculations : Yes
Used interface : Native Win32 interface for Win NT & 2000
Used output format : Internal WAV Routines
Sample format : 44.100 Hz; 16 Bit; Stereo
TOC of the extracted CD
Track | Start | Length | Start sector | End sector
---------------------------------------------------------
1 | 0:00.00 | 10:57.00 | 0 | 49274
2 | 10:57.00 | 5:34.67 | 49275 | 74391
3 | 16:31.67 | 4:02.70 | 74392 | 92611
4 | 20:34.62 | 8:06.55 | 92612 | 129116
5 | 28:41.42 | 8:45.25 | 129117 | 168516
6 | 37:26.67 | 6:00.53 | 168517 | 195569
7 | 43:27.45 | 7:04.50 | 195570 | 227419
8 | 50:32.20 | 9:18.20 | 227420 | 269289
Range status and errors
Selected range
Filename E:\John Abercrombie - Cat 'n' Mouse\John Abercrombie - Cat 'n' Mouse.wav
Peak level 100.0 %
Range quality 99.9 %
Copy CRC 6028ED82
Copy OK
No errors occurred
AccurateRip summary
Track 1 cannot be verified as accurate (confidence 9) [AD264E09], AccurateRip returned [32C176BB]
Track 2 cannot be verified as accurate (confidence 12) [198EBE87], AccurateRip returned [65B167D7]
Track 3 cannot be verified as accurate (confidence 9) [FB37EA43], AccurateRip returned [2F089944]
Track 4 cannot be verified as accurate (confidence 12) [E43BE884], AccurateRip returned [83EF599B]
Track 5 cannot be verified as accurate (confidence 9) [6B989E53], AccurateRip returned [719F71C1]
Track 6 cannot be verified as accurate (confidence 8) [99A05489], AccurateRip returned [8E0A3CA2]
Track 7 cannot be verified as accurate (confidence 9) [5972C5D8], AccurateRip returned [F50CC287]
Track 8 cannot be verified as accurate (confidence 12) [422950B7], AccurateRip returned [691DE49E]
No tracks could be verified as accurate
You may have a different pressing from the one(s) in the database
End of status report
Приватный Нет (DHT включён)
Хэш 194256B43096FD0EFB4823C8D61B2AF4C1CA566A
Размер 315.63 Мб (330,960,307 байт) » файлов: 3 [ Список файлов ]
Участники 0 раздают, 0 качают (0 участников всего)
Внешние участники 1 раздают, 0 качают (1 участников всего)
Скорость Сейчас никто не качает
20:59
128
RSS
Нет комментариев. Ваш будет первым!