Поиск

2007 Arnie Somogyi's Ambulance - Accident And Insurgency {Linn} [DST64]

2007 Arnie Somogyi's Ambulance - Accident And Insurgency {Linn} [DST64]
Стили:
Дата записи диска:
9 мая и 6 сентября 2007
Место записи:
Intimate Studios, London, England, UK
Издатель (лейбл):
Номер по каталогу:
AKD 306
Битрейт аудио:
lossless

Треклист:

01. Walking Wounded  07:01
02. Mick the Fish  02:15
03. Captain Courageous  08:47
04. Tumbledown  07:06
05. Lobster Pot  01:09
06. Don't Improvise  03:54
07. Solace  07:31
08. Serenity  00:44
09. Adrift  06:25
10. Sirenity  01:03
11. Broadside  09:23

Доп. инфо:

Формат записи/Источник записи: [SACD-R][OF]
Наличие водяных знаков: Нет
Год издания/переиздания диска: 2007
Продолжительность: 00:55:21
Наличие сканов в содержимом раздачи: Да (сканы)

Контейнер: ISO (*.iso)
Тип рипа: image
Разрядность: 64(2,8 MHz/1 Bit)
Формат: DST64
Количество каналов: 5.1, 2.0

Лог проверки качества
foobar2000 1.4.6 / Замер динамического диапазона (DR) 1.1.1
Дата отчёта:  2019-07-21 14:16:05

--------------------------------------------------------------------------------
Анализ:   Arnie Somogyi's Ambulance / Accident and Insurgency
--------------------------------------------------------------------------------

DR         Пики         RMS           Продолжительность трека
--------------------------------------------------------------------------------
DR11      -6.85 дБ   -23.27 дБ      7:00 01-Walking Wounded
DR13      -9.85 дБ   -31.26 дБ      2:15 02-Mick the Fish
DR13      -7.03 дБ   -25.61 дБ      8:48 03-Captain Courageous
DR10      -8.94 дБ   -25.73 дБ      7:06 04-Tumbledown
DR11      -7.26 дБ   -26.47 дБ      1:09 05-Lobster Pot 999
DR10      -7.18 дБ   -22.43 дБ      3:54 06-Don't Improvise
DR11      -7.31 дБ   -24.00 дБ      7:31 07-Solace
DR13     -14.95 дБ   -35.66 дБ      0:45 08-Serenity
DR11      -9.33 дБ   -26.40 дБ      6:26 09-Adrift
DR11      -7.07 дБ   -23.71 дБ      1:04 10-Sirenity (aka deaf on arrival)
DR12      -6.50 дБ   -24.27 дБ      9:24 11-Broadside
--------------------------------------------------------------------------------

Количество треков: 11
Реальные значения DR: DR11

Частота:   2822400 Гц / Частота PCM: 88200 Гц
Каналов:   6
Разрядность:   1
Битрейт:   16934 кбит/с
Кодек:   DST64
================================================================================

--------------------------------------------------------------------------------
Анализ:   Arnie Somogyi's Ambulance / Accident and Insurgency
--------------------------------------------------------------------------------

DR         Пики         RMS           Продолжительность трека
--------------------------------------------------------------------------------
DR9       -6.21 дБ   -18.54 дБ      7:00 01-Walking Wounded
DR13      -8.32 дБ   -26.06 дБ      2:15 02-Mick the Fish
DR12      -6.19 дБ   -20.88 дБ      8:48 03-Captain Courageous
DR10      -7.71 дБ   -21.02 дБ      7:06 04-Tumbledown
DR11      -6.30 дБ   -21.81 дБ      1:09 05-Lobster Pot 999
DR9       -6.29 дБ   -17.76 дБ      3:54 06-Don't Improvise
DR10      -6.34 дБ   -19.32 дБ      7:31 07-Solace
DR13     -13.56 дБ   -30.95 дБ      0:45 08-Serenity
DR10      -8.34 дБ   -21.67 дБ      6:26 09-Adrift
DR11      -6.32 дБ   -18.95 дБ      1:04 10-Sirenity (aka deaf on arrival)
DR11      -6.24 дБ   -19.46 дБ      9:24 11-Broadside
--------------------------------------------------------------------------------

Количество треков: 11
Реальные значения DR: DR11

Частота:   2822400 Гц / Частота PCM: 88200 Гц
Каналов:   2
Разрядность:   1
Битрейт:   5645 кбит/с
Кодек:   DST64
================================================================================
Приватный:
Нет (DHT включён)
Размер:
3.16 Гб (3,396,321,697 байт) » файлов: 6
Участники:
0 раздают, 0 качают (0 участников всего)
Внешние участники:
3 раздают, 1 качают (4 участников всего) [ Обновить ]
No seeders - write personal message to M0p94ok. Any questions - support@pro-jazz.com.
Нет сидеров - пишите в личку M0p94ok. Есть вопросы - support@pro-jazz.com
09:59
150
Нет комментариев. Ваш будет первым!