Поиск

2009 Blue Chamber Quartet - Children's Songs {Stockfisch} [DST64]

2009 Blue Chamber Quartet - Children's Songs {Stockfisch} [DST64]
Издатель (лейбл):
Битрейт аудио:
lossless
Треклист:

01. Children's Song No.1
02. Children's Song No.2
03. Children's Song No.3
04. Children's Song No.4
05. Children's Song No.5
06. Children's Song No.6
07. Children's Song No.7
08. Children's Song No.8
09. Children's Song No.9
10. Children's Song No.10
11. Children's Song No.11
12. Children's Song No.12
13. Children's Song No.13
14. Children's Song No.14
15. Children's Song No.15
16. Children's Song No.16
17. Children's Song No.17
18. Children's Song No.18
19. Children's Song No.19
20. Children's Song No.20

Доп. инфо:

Формат записи/Источник записи: [SACD-R][OF]
Наличие водяных знаков: Нет
Год издания/переиздания диска: 2009
Продолжительность: 00:43:03
Наличие сканов в содержимом раздачи: Да (сканы)

Контейнер: ISO (*.iso)
Тип рипа: image
Разрядность: 64(2,8 MHz/1 Bit)
Формат: DST64
Количество каналов: 5.1, 2.0

Лог проверки качества
foobar2000 1.4.6 / Замер динамического диапазона (DR) 1.1.1
Дата отчёта:  2019-07-26 19:18:52

--------------------------------------------------------------------------------
Анализ:   Blue Chamber Quartet / Children´s Songs - by Chick Corea
--------------------------------------------------------------------------------

DR         Пики         RMS           Продолжительность трека
--------------------------------------------------------------------------------
DR11      -9.69 дБ   -32.04 дБ      3:28 01-Children´s Song No.1
DR12      -7.10 дБ   -29.20 дБ      1:32 02-Children´s Song No.2
DR11      -8.58 дБ   -29.51 дБ      1:46 03-Children´s Song No.3
DR11      -6.54 дБ   -28.08 дБ      3:13 04-Children´s Song No.4
DR11      -7.74 дБ   -28.86 дБ      1:33 05-Children´s Song No.5
DR10      -6.85 дБ   -25.07 дБ      3:32 06-Children´s Song No.6
DR11      -8.95 дБ   -30.17 дБ      2:08 07-Children´s Song No.7
DR11      -8.21 дБ   -28.95 дБ      1:59 08-Children´s Song No.8
DR11     -10.09 дБ   -29.50 дБ      1:46 09-Children´s Song No.9
DR10      -8.03 дБ   -30.39 дБ      1:56 10-Children´s Song No.10
DR13      -5.94 дБ   -28.01 дБ      1:28 11-Children´s Song No.11
DR12      -6.86 дБ   -25.22 дБ      2:19 12-Children´s Song No.12
DR12      -6.98 дБ   -26.10 дБ      1:36 13-Children´s Song No.13
DR12      -6.92 дБ   -28.10 дБ      2:27 14-Children´s Song No.14
DR11     -12.53 дБ   -33.45 дБ      1:46 15-Children´s Song No.15
DR11      -9.22 дБ   -28.02 дБ      1:38 16-Children´s Song No.16
DR12     -10.32 дБ   -33.26 дБ      1:30 17-Children´s Song No.17
DR10      -6.43 дБ   -22.73 дБ      1:46 18-Children´s Song No.18
DR12      -9.38 дБ   -33.10 дБ      2:48 19-Children´s Song No.19
DR15      -6.57 дБ   -29.23 дБ      2:50 20-Children´s Song No.20
--------------------------------------------------------------------------------

Количество треков: 20
Реальные значения DR: DR12

Частота:   2822400 Гц / Частота PCM: 88200 Гц
Каналов:   6
Разрядность:   1
Битрейт:   16934 кбит/с
Кодек:   DST64
================================================================================

--------------------------------------------------------------------------------
Анализ:   Blue Chamber Quartet / Children´s Songs - by Chick Corea
--------------------------------------------------------------------------------

DR         Пики         RMS           Продолжительность трека
--------------------------------------------------------------------------------
DR11      -6.46 дБ   -24.29 дБ      3:28 01-Children´s Song No.1
DR10      -6.58 дБ   -21.45 дБ      1:32 02-Children´s Song No.2
DR11      -5.90 дБ   -21.90 дБ      1:46 03-Children´s Song No.3
DR9       -5.88 дБ   -20.44 дБ      3:13 04-Children´s Song No.4
DR10      -5.86 дБ   -21.33 дБ      1:33 05-Children´s Song No.5
DR8       -5.38 дБ   -17.67 дБ      3:32 06-Children´s Song No.6
DR11      -5.92 дБ   -22.80 дБ      2:08 07-Children´s Song No.7
DR10      -5.97 дБ   -21.53 дБ      1:59 08-Children´s Song No.8
DR11      -6.71 дБ   -22.01 дБ      1:46 09-Children´s Song No.9
DR11      -6.77 дБ   -23.64 дБ      1:56 10-Children´s Song No.10
DR10      -6.03 дБ   -20.64 дБ      1:28 11-Children´s Song No.11
DR9       -5.66 дБ   -18.07 дБ      2:19 12-Children´s Song No.12
DR10      -5.84 дБ   -18.89 дБ      1:36 13-Children´s Song No.13
DR11      -5.88 дБ   -20.88 дБ      2:27 14-Children´s Song No.14
DR12     -10.06 дБ   -26.10 дБ      1:46 15-Children´s Song No.15
DR10      -6.58 дБ   -20.37 дБ      1:38 16-Children´s Song No.16
DR12      -7.57 дБ   -25.23 дБ      1:30 17-Children´s Song No.17
DR8       -5.43 дБ   -15.41 дБ      1:46 18-Children´s Song No.18
DR13      -6.83 дБ   -26.08 дБ      2:48 19-Children´s Song No.19
DR11      -5.18 дБ   -22.12 дБ      2:50 20-Children´s Song No.20
--------------------------------------------------------------------------------

Количество треков: 20
Реальные значения DR: DR10

Частота:   2822400 Гц / Частота PCM: 88200 Гц
Каналов:   2
Разрядность:   1
Битрейт:   5645 кбит/с
Кодек:   DST64
================================================================================
Приватный:
Нет (DHT включён)
Размер:
2.47 Гб (2,651,043,060 байт) » файлов: 21
Участники:
0 раздают, 0 качают (0 участников всего)
Внешние участники:
8 раздают, 2 качают (10 участников всего) [ Обновить ]
For power users only: no seeders - write to support@pro-jazz.com. Для power user: нет сидеров - пишите на support@pro-jazz.com.
11:59
90
Нет комментариев. Ваш будет первым!