Поиск

1989 Ana Caram - Rio After Dark (2002) {Chesky} [DST64]

1989 Ana Caram - Rio After Dark (2002) {Chesky} [DST64]
Дата записи диска:
6 апреля, 7 апреля и 18 апреля 1989
Место записи:
RCA Studio A, New York City, NY, USA
Издатель (лейбл):
Номер по каталогу:
SACD241
Битрейт аудио:
lossless
Доп. инфо:

Формат записи/Источник записи: [SACD-R][OF]
Наличие водяных знаков: Нет
Год издания/переиздания диска: 1989/2002
Продолжительность: 00:58:01
Наличие сканов в содержимом раздачи: Да (сканы)

Контейнер: ISO (*.iso)
Тип рипа: image
Разрядность: 64(2,8 MHz/1 Bit)
Формат: DST64
Количество каналов: 5.0, 2.0

Лог проверки качества
foobar2000 1.4.6 / Замер динамического диапазона (DR) 1.1.1
Дата отчёта:  2019-07-20 14:10:51

--------------------------------------------------------------------------------
Анализ:   Ana Caram / Rio After Dark
--------------------------------------------------------------------------------

DR         Пики         RMS           Продолжительность трека
--------------------------------------------------------------------------------
DR10      -6.30 дБ   -27.46 дБ      3:52 01-Rio After Dark
DR10      -7.67 дБ   -28.10 дБ      4:02 02-Alagoas
DR10     -10.69 дБ   -31.67 дБ      3:35 03-Meditation
DR11      -6.01 дБ   -26.49 дБ      6:02 04-Viola Fora De Moda
DR10     -11.52 дБ   -31.97 дБ      4:47 05-Summer Days
DR10      -6.14 дБ   -24.23 дБ      4:41 06-La Cumbia
DR10      -9.14 дБ   -29.89 дБ      4:03 07-Anos Dourados
DR12      -6.38 дБ   -28.28 дБ      3:12 08-Renovacao
DR10      -7.90 дБ   -30.13 дБ      4:18 09-Rainbow
DR11      -6.16 дБ   -27.74 дБ      2:09 10-O Que Vier Eu Traco
DR10     -10.59 дБ   -31.41 дБ      2:54 11-Sem Lengenda
DR9      -11.13 дБ   -30.39 дБ      3:18 12-Forever
DR10      -9.74 дБ   -29.95 дБ      4:19 13-O Tempo E O Lugar
DR10      -7.46 дБ   -27.14 дБ      2:33 14-Serrado
DR11      -7.22 дБ   -31.03 дБ      4:16 15-You've Got A Friend
--------------------------------------------------------------------------------

Количество треков: 15
Реальные значения DR: DR10

Частота:   2822400 Гц / Частота PCM: 88200 Гц
Каналов:   5
Разрядность:   1
Битрейт:   14112 кбит/с
Кодек:   DST64
================================================================================

--------------------------------------------------------------------------------
Анализ:   Ana Caram / Rio After Dark
--------------------------------------------------------------------------------

DR         Пики         RMS           Продолжительность трека
--------------------------------------------------------------------------------
DR12      -6.30 дБ   -24.03 дБ      3:52 01-Rio After Dark
DR13      -7.67 дБ   -24.62 дБ      4:02 02-Alagoas
DR13     -10.69 дБ   -28.42 дБ      3:35 03-Meditation
DR13      -6.01 дБ   -23.12 дБ      6:02 04-Viola Fora De Moda
DR13     -11.52 дБ   -28.62 дБ      4:47 05-Summer Days
DR12      -6.14 дБ   -20.80 дБ      4:41 06-La Cumbia
DR13      -9.14 дБ   -26.61 дБ      4:03 07-Anos Dourados
DR15      -6.38 дБ   -24.84 дБ      3:12 08-Renovacao
DR13      -7.90 дБ   -26.76 дБ      4:18 09-Rainbow
DR14      -6.16 дБ   -24.31 дБ      2:09 10-O Que Vier Eu Traco
DR12     -10.59 дБ   -27.92 дБ      2:54 11-Sem Lengenda
DR12     -11.13 дБ   -27.04 дБ      3:18 12-Forever
DR12      -9.74 дБ   -26.65 дБ      4:19 13-O Tempo E O Lugar
DR13      -7.46 дБ   -23.55 дБ      2:33 14-Serrado
DR14      -7.22 дБ   -27.65 дБ      4:16 15-You've Got A Friend
--------------------------------------------------------------------------------

Количество треков: 15
Реальные значения DR: DR13

Частота:   2822400 Гц / Частота PCM: 88200 Гц
Каналов:   2
Разрядность:   1
Битрейт:   5645 кбит/с
Кодек:   DST64
================================================================================
No seeders - write personal message to M0p94ok. Any questions - support@pro-jazz.com.
Нет сидеров - пишите в личку M0p94ok. Есть вопросы - support@pro-jazz.com
03:27
353
Нет комментариев. Ваш будет первым!