Поиск

2006 Vaya Con Dios · Ultimate Collection {Sony BMG 88697014482}

2006 Vaya Con Dios · Ultimate Collection {Sony BMG 88697014482}
Страна-производитель диска (релиза):
Belgium
Дата издания диска:
2006
Издатель (лейбл):
Номер по каталогу:
88697014482
Носитель:
CD
Битрейт аудио:
lossless
Аудиокодек:
APE (*.ape)
Тип рипа:
image+.cue
Время звучания:
73:55

Треклист:

01. Pauvre diable 3:03
02. Just A Friend Of Mine 3:24
03. Don't Cry For Louie 3:02
04. Philadelphia 3:35
05. Puerto Rico 4:23
06. Johnny 2:21
07. I Don't Want To Know 3:34
08. Nah Neh Nah 2:56
09. Travelling Light 3:30
10. What's A Woman? 3:53
11. Heading For A Fall 3:40
12. Far Gone Now 3:12
13. Time Flies 3:41
14. Forever Blue 3:59
15. Farewell Song 3:12
16. Stay With Me 3:43
17. Don't Break My Heart 4:23
18. Je l'aime je l'aime 2:54
19. Don't Deny 3:31
20. Some Like It Hot 3:45
21. Vaya Con Dios feat. Aaron Neville - What's A Woman? 4:08

Лог создания рипа
Exact Audio Copy V0.99 prebeta 1 from 25. May 2007

Отчёт EAC об извлечении, выполненном 27. июля 2007, 18:34

Vaya Con Dios / The Ultimate Collection

Дисковод: _NEC DVD_RW ND-4551A Adapter: 0 ID: 0

Режим чтения : Достоверность
Использование точного потока : Да
Отключение кэша аудио : Нет
Использование указателей C2 : Нет

Коррекция смещения при чтении : 48
Способность читать области Lead-in и Lead-out : Нет
Заполнение пропущенных сэмплов тишиной : Да
Удаление блоков с тишиной в начале и конце : Нет
Интерфейс : Встроенный Win32-интерфейс для Win NT/2000

Выходной формат : Внутренние WAV-операции
Формат сэмплов : 44.100 Гц; 16 бит; стерео

TOC извлечённого CD

Трек | Старт | Длительность | Начальный сектор | Конечный сектор
---------------------------------------------------------------------
1 | 0:00.00 | 3:03.28 | 0 | 13752
2 | 3:03.28 | 3:24.65 | 13753 | 29117
3 | 6:28.18 | 3:02.56 | 29118 | 42823
4 | 9:30.74 | 3:35.07 | 42824 | 58955
5 | 13:06.06 | 4:23.02 | 58956 | 78682
6 | 17:29.08 | 2:21.35 | 78683 | 89292
7 | 19:50.43 | 3:34.17 | 89293 | 105359
8 | 23:24.60 | 2:56.19 | 105360 | 118578
9 | 26:21.04 | 3:30.38 | 118579 | 134366
10 | 29:51.42 | 3:53.47 | 134367 | 151888
11 | 33:45.14 | 3:40.43 | 151889 | 168431
12 | 37:25.57 | 3:12.11 | 168432 | 182842
13 | 40:37.68 | 3:41.52 | 182843 | 199469
14 | 44:19.45 | 3:59.42 | 199470 | 217436
15 | 48:19.12 | 3:12.37 | 217437 | 231873
16 | 51:31.49 | 3:43.47 | 231874 | 248645
17 | 55:15.21 | 4:23.65 | 248646 | 268435
18 | 59:39.11 | 2:54.32 | 268436 | 281517
19 | 62:33.43 | 3:31.19 | 281518 | 297361
20 | 66:04.62 | 3:45.61 | 297362 | 314297
21 | 69:50.48 | 4:08.74 | 314298 | 332971

Характеристики диапазона извлечения и сообщения об ошибках

Выбранный диапазон

Имя файла D:\TORRENT\UPLOAD\Vaya Con Dios\Vaya Con Dios - The Ultimate Collection.wav

Пиковый уровень 99.9 %
Качество диапазона 100.0 %
CRC копии 359798EB
Копирование... OK

AccurateRip: сводка

Трек 1 точное извлечение (доверие 2) [9657D0F6]
Трек 2 точное извлечение (доверие 2) [0D2F8EAC]
Трек 3 точное извлечение (доверие 2) [25510D6E]
Трек 4 точное извлечение (доверие 2) [D5674FDD]
Трек 5 точное извлечение (доверие 2) [E8B13861]
Трек 6 точное извлечение (доверие 2) [98BA6AC5]
Трек 7 точное извлечение (доверие 2) [01BF4D3D]
Трек 8 точное извлечение (доверие 2) [12C9C392]
Трек 9 точное извлечение (доверие 2) [3E6F20A2]
Трек 10 точное извлечение (доверие 2) [4000AC13]
Трек 11 точное извлечение (доверие 2) [EFBCCCF0]
Трек 12 точное извлечение (доверие 2) [A99707E0]
Трек 13 точное извлечение (доверие 2) [3E76C4D0]
Трек 14 точное извлечение (доверие 2) [13604C2F]
Трек 15 точное извлечение (доверие 2) [45D99055]
Трек 16 точное извлечение (доверие 2) [F8B3C4AD]
Трек 17 точное извлечение (доверие 2) [1F84F150]
Трек 18 точное извлечение (доверие 2) [DD7A1032]
Трек 19 точное извлечение (доверие 2) [1F31AEAB]
Трек 20 точное извлечение (доверие 2) [9C6D77FF]
Трек 21 точное извлечение (доверие 2) [57CDC5F0]

Ошибок не произошло

Конец отчёта
Приватный:
Нет (DHT включён)
Размер:
463.86 Мб (486,394,655 байт) » файлов: 3
Участники:
0 раздают, 0 качают (0 участников всего)
Внешние участники:
Нет внешних трекеров [ Обновить ]
15:42
29
RSS
Нет комментариев. Ваш будет первым!