Поиск

1993 Fourplay - Between The Sheets {Warner Bros 9 45340-2}

1993 Fourplay - Between The Sheets {Warner Bros 9 45340-2}
Дата издания диска:
17 августа 1993
Издатель (лейбл):
Номер по каталогу:
9 45340-2
Носитель:
CD
Битрейт аудио:
lossless
Аудиокодек:
APE (*.ape)
Тип рипа:
image+.cue
Время звучания:
01:07:41
Наличие сканов:
  • нет

Состав:
  • Philip Bailey    Vocals (Background)
  • Marcel East    Composer, Engineer
  • Nathan East    6-String Bass, Bass, Chant, Composer, Fretless Bass, Liner Notes, Performer, Producer, Vocals, Vocals (Background)
  • Fourplay    Arranger, Producer
  • Dee Fredrix    Chant
  • Bob James    Arranger, Chant, Composer, Executive Producer, Keyboards, Piano, Producer, Synthesizer, Synthesizer Orchestration
  • Chaka Khan    Vocals
  • Harvey Mason, Sr.    Bells, Chimes, Composer, Computers, Cymbals, Drum Programming, Drums, Drums (Snare), Marimba, Percussion, Producer, Programming, Sequencing, Stick, Synthesizer, Vibraphone
  • Chanté Moore    Vocals (Background)
  • Phil Perry    Vocals (Background)
  • Lee Ritenour    Composer, Guitar, Guitar (Electric), Guitar (Synthesizer), Producer, Synthesizer
  • Roger Sadowski    Guitar (Classical), Guitar (Electric)

01. Chant 6:24
02. Monterrey 6:12
03. Between The Sheets 6:45
04. Li'l Darlin' 5:16
05. Flying East 6:08
06. Once In The AM 6:30v 07. Gulliver 6:48
08. Amoroso 5:48
09. Summer Child 5:33
10. Anthem 5:39
11. Song For Somalia 6:29

Записано в 

  • Pyramid Studios
  • Sunset sound
Лог создания рипа
EAC extraction logfile from 5. December 2007, 0:46 for CD
Fourplay / Between The Sheets

Used drive : BENQ DVD DD DW1650 Adapter: 1 ID: 0
Read mode : Secure with NO C2, accurate stream, disable cache
Read offset correction : 618
Overread into Lead-In and Lead-Out : No

Used output format : C:\Programme\Exact Audio Copy\lame.exe (User Defined Encoder)
32 kBit/s
Additional command line options : -V 2 --vbr-new --add-id3v2 --pad-id3v2 --ta "%a" --tt "%t" --tl "%g" --ty "%y" --tn "%n" --tg "%m" %s %d

Other options :
Fill up missing offset samples with silence : Yes
Delete leading and trailing silent blocks : No
Installed external ASPI interface

Range status and errors
Selected range
Filename E:\My Music\Jazz\Fourplay\Fourplay - (1993) Between The Sheets\Fourplay - Between The Sheets.wav

Peak level 100.0 %
Range quality 99.9 %
CRC CBBE18DE
Copy OK

No errors occured

End of status report
Содержание индексной карты (.CUE)
[CUETools log; Date: 14.06.2011 1:49:16; Version: 2.1.1]
[CTDB TOCID: ln5tJlYNVxb_zlCcFzRSnt8nKAw-] disk not present in database.
[AccurateRip ID: 001c25cd-00f33eb5-8b0fdd0b] found.
Track   [ CRC    ] Status
 01     [05a618b3] (08/84) Accurately ripped
 02     [e57ba1ba] (08/82) Accurately ripped
 03     [fa0246ea] (08/85) Accurately ripped
 04     [21201208] (08/83) Accurately ripped
 05     [30687ad4] (08/84) Accurately ripped
 06     [a7ab880a] (08/84) Accurately ripped
 07     [c19e9e57] (08/85) Accurately ripped
 08     [da29dbd1] (08/85) Accurately ripped
 09     [0c21314d] (08/85) Accurately ripped
 10     [2e7135d9] (08/85) Accurately ripped
 11     [085eb568] (08/85) Accurately ripped
Offsetted by -236:
 01     [4f583ddb] (03/84) Accurately ripped
 02     [86d2a5a2] (03/82) Accurately ripped
 03     [0de75f6e] (03/85) Accurately ripped
 04     [6d7a5e58] (03/83) Accurately ripped
 05     [ddb09dac] (03/84) Accurately ripped
 06     [2db931ce] (03/84) Accurately ripped
 07     [ebcc232b] (03/85) Accurately ripped
 08     [aba6f9b9] (03/85) Accurately ripped
 09     [2a4ae7d5] (03/85) Accurately ripped
 10     [b6f47589] (03/85) Accurately ripped
 11     [d066b46c] (02/85) Accurately ripped
Offsetted by -98:
 01     [3370126f] (02/84) Accurately ripped
 02     [5a60d996] (02/82) Accurately ripped
 03     [047098b0] (02/85) Accurately ripped
 04     [c52b8880] (02/83) Accurately ripped
 05     [e07fed18] (02/84) Accurately ripped
 06     [795ec3b0] (02/84) Accurately ripped
 07     [9ce59695] (02/85) Accurately ripped
 08     [909cbaad] (02/85) Accurately ripped
 09     [7e9efd19] (02/85) Accurately ripped
 10     [aeb91161] (02/85) Accurately ripped
 11     [f9ce80ee] (02/85) Accurately ripped
Offsetted by 664:
 01     [61b0dfe3] (64/84) Accurately ripped
 02     [64f79f6a] (62/82) Accurately ripped
 03     [a3a917a2] (65/85) Accurately ripped
 04     [0d8e7c68] (63/83) Accurately ripped
 05     [96f8a3a4] (64/84) Accurately ripped
 06     [c2074242] (64/84) Accurately ripped
 07     [4245996f] (65/85) Accurately ripped
 08     [528e7e21] (65/85) Accurately ripped
 09     [249d2ecd] (65/85) Accurately ripped
 10     [c40cf379] (65/85) Accurately ripped
 11     [2c599120] (66/85) Accurately ripped

Track Peak [ CRC32  ] [W/O NULL] [  LOG   ]
 --  100,0 [31D35AA2] [CBBE18DE]  W/O NULL
 01   93,7 [0C2B0195] [97CCFF8F]
 02   91,8 [07643855] [AA3F90F6]
 03   90,1 [AC6D6E3E] [3491636C]
 04   92,2 [A1C998A6] [EE7ABA49]
 05  100,0 [723EF6B1] [533CE65F]
 06   97,3 [4EE5BB86] [AAF1752A]
 07   93,8 [0C8169DB] [59A39DB5]
 08  100,0 [F0B474F0] [B709F312]
 09   90,6 [82DF0582] [80B055AD]
 10   91,6 [C9040BC1] [EC022906]
 11   89,1 [BA940547] [EB2BCFDF]
Скачивание доступно после регистрации!!
Приватный:
Нет (DHT включён)
Размер:
347.83 Мб (364,724,473 байт) » файлов: 3
Участники:
0 раздают, 0 качают (0 участников всего)
Внешние участники:
--- [ Обновить ]
16:42
125
RSS
Нет комментариев. Ваш будет первым!