Поиск

1999 Sam "The Man" Taylor - Standard Best Collection (3CD) {FGS-901 (DMPDC-00009)}

1999 Sam "The Man" Taylor - Standard Best Collection (3CD) {FGS-901 (DMPDC-00009)}
Страна-производитель диска (релиза):
Japan
Дата издания диска:
1999
Номер по каталогу:
FGS-901 (DMPDC-00009)
Носитель:
CD
Битрейт аудио:
lossless
Аудиокодек:
APE (*.ape)
Тип рипа:
tracks+.cue
Время звучания:
48:50 + 53:28 + 39:17
Наличие сканов:
  • да
Релизёр (источник):
Xi4niK

Треклист:

CD1
01. Harlem Nocturne
02. Red Sails In The Sunset
03. Stardust
04. Smoke Gets In Your Eyes
05. Only You (And You Alone)
06. Georgia On My Mind
07. Summertime
08. Ebb Tide
09. Danny Boy
10. St.Louis Blues
11. Till
12. Autumn Leavis
13. Broken Promises
14. The Lonely One
15. Love Letters
16. Over The Rainbow

Sam "The Man" Taylor - "Standard Best Collection"

CD2
01. La Reine Saba
02. Feelings
03. C'est Irreparable
04. The Last Waltz
05. Che Vuole Questa Nusica Stasera
06. Strangers In The Night
07. I Left My Heart In San Francisco
08. My Way
09. Yesterday
10. This Masquerade
11. Love Is A Many Splendored Thing
12. Love Me With All Your Heart
13. A Whiter Shade Of Pale
14. Green Green Grass Of Home
15. The Girl From Ipanema
16. Tombe La Neige

CD3
01. Besame Mucho
02. The Shadow Of Your Smile
03. Moon River
04. Bonus 04
05. Bonus 05
06. Bonus 06
07. You don't have to say You love Me (Dusty Springfield)
08. Bonus 08
09. Bonus 09
10. Love Story
11. Raindrops keep falling on My Head
12. Bonus 12
13. Bonus 13
14. Bonus 14

Лог создания рипа
Отчёт EAC об извлечении, выполненном 30. августа 2006, 13:35 для диска:
Sam Taylor / Standard Best Collection Vol.1

Дисковод: MITSUMI CR-48XATE   Adapter: 1  ID: 3
Режим чтения: Точный (C2: да, Точный поток: да, Отключение кэша: да)
Коррекция смещения при чтении: 0
Экстрачтение областей Lead-in и Lead-out : Нет

Выходной формат: Monkey's Audio Lossless Encoder v3.99 DLL
                     High Lossless Compression

Другие параметры: 
    Заполнение пропущенных сэмплов тишиной : Да
    Удаление блоков с тишиной в начале и конце : Нет
    Установленный внешний ASPI-интерфейс


Трек  1
     Имя файла D:\JAZZ\Sam Taylor_Standard Best Collection\CD1\01_Harlem Nocturne.ape

     Пиковый уровень 71.9 %
     Качество трека 100.0 %
     CRC теста 1222D453
     CRC копии 1222D453
     Копирование... OK

Трек  2
     Имя файла D:\JAZZ\Sam Taylor_Standard Best Collection\CD1\02_Red Sails In The Sunset.ape

     Пиковый уровень 92.7 %
     Качество трека 100.0 %
     CRC теста F68B4703
     CRC копии F68B4703
     Копирование... OK

Трек  3
     Имя файла D:\JAZZ\Sam Taylor_Standard Best Collection\CD1\03_Stardust.ape

     Пиковый уровень 75.1 %
     Качество трека 100.0 %
     CRC теста 8F94A48F
     CRC копии 8F94A48F
     Копирование... OK

Трек  4
     Имя файла D:\JAZZ\Sam Taylor_Standard Best Collection\CD1\04_Smoke Gets In Your Eyes.ape

     Пиковый уровень 73.4 %
     Качество трека 100.0 %
     CRC теста 25A00DE5
     CRC копии 25A00DE5
     Копирование... OK

Трек  5
     Имя файла D:\JAZZ\Sam Taylor_Standard Best Collection\CD1\05_Only You (And You Alone).ape

     Пиковый уровень 61.1 %
     Качество трека 100.0 %
     CRC теста 5A7120F4
     CRC копии 5A7120F4
     Копирование... OK

Трек  6
     Имя файла D:\JAZZ\Sam Taylor_Standard Best Collection\CD1\06_Georgia On My Mind.ape

     Пиковый уровень 63.7 %
     Качество трека 100.0 %
     CRC теста EE9A9E50
     CRC копии EE9A9E50
     Копирование... OK

Трек  7
     Имя файла D:\JAZZ\Sam Taylor_Standard Best Collection\CD1\07_Summertime.ape

     Пиковый уровень 70.7 %
     Качество трека 100.0 %
     CRC теста 699B2D48
     CRC копии 699B2D48
     Копирование... OK

Трек  8
     Имя файла D:\JAZZ\Sam Taylor_Standard Best Collection\CD1\08_Ebb Tide.ape

     Пиковый уровень 67.7 %
     Качество трека 100.0 %
     CRC теста 6BF5E064
     CRC копии 6BF5E064
     Копирование... OK

Трек  9
     Имя файла D:\JAZZ\Sam Taylor_Standard Best Collection\CD1\09_Danny Boy.ape

     Пиковый уровень 72.9 %
     Качество трека 100.0 %
     CRC теста 42E9BB3F
     CRC копии 42E9BB3F
     Копирование... OK

Трек 10
     Имя файла D:\JAZZ\Sam Taylor_Standard Best Collection\CD1\10_St.Louis Blues.ape

     Пиковый уровень 100.0 %
     Качество трека 100.0 %
     CRC теста 406211E2
     CRC копии 406211E2
     Копирование... OK

Трек 11
     Имя файла D:\JAZZ\Sam Taylor_Standard Best Collection\CD1\11_Till.ape

     Пиковый уровень 55.6 %
     Качество трека 100.0 %
     CRC теста 2BA74D1D
     CRC копии 2BA74D1D
     Копирование... OK

Трек 12
     Имя файла D:\JAZZ\Sam Taylor_Standard Best Collection\CD1\12_Autumn Leavis.ape

     Пиковый уровень 45.9 %
     Качество трека 100.0 %
     CRC теста DD54252A
     CRC копии DD54252A
     Копирование... OK

Трек 13
     Имя файла D:\JAZZ\Sam Taylor_Standard Best Collection\CD1\13_Broken Promises.ape

     Пиковый уровень 82.4 %
     Качество трека 100.0 %
     CRC теста 5E4C54DD
     CRC копии 5E4C54DD
     Копирование... OK

Трек 14
     Имя файла D:\JAZZ\Sam Taylor_Standard Best Collection\CD1\14_The Lonely One.ape

     Пиковый уровень 65.6 %
     Качество трека 100.0 %
     CRC теста CA9DF0CE
     CRC копии CA9DF0CE
     Копирование... OK

Трек 15
     Имя файла D:\JAZZ\Sam Taylor_Standard Best Collection\CD1\15_Love Letters.ape

     Пиковый уровень 59.7 %
     Качество трека 100.0 %
     CRC теста 7E2BB5C4
     CRC копии 7E2BB5C4
     Копирование... OK

Трек 16
     Имя файла D:\JAZZ\Sam Taylor_Standard Best Collection\CD1\16_Over The Rainbow.ape

     Пиковый уровень 61.5 %
     Качество трека 100.0 %
     CRC теста 7713601E
     CRC копии 7713601E
     Копирование... OK

Ошибок не произошло


Конец отчёта
Отчёт EAC об извлечении, выполненном 30. августа 2006, 12:53 для диска:
Sam Taylor / Standard Best Collection Vol.2

Дисковод: MITSUMI CR-48XATE   Adapter: 1  ID: 3
Режим чтения: Точный (C2: да, Точный поток: да, Отключение кэша: да)
Коррекция смещения при чтении: 0
Экстрачтение областей Lead-in и Lead-out : Нет

Выходной формат: Monkey's Audio Lossless Encoder v3.99 DLL
                     High Lossless Compression

Другие параметры: 
    Заполнение пропущенных сэмплов тишиной : Да
    Удаление блоков с тишиной в начале и конце : Нет
    Установленный внешний ASPI-интерфейс


Трек  1
     Имя файла D:\JAZZ\Sam Taylor_Standard Best Collection\CD2\01_La Reine Saba.ape

     Длина предзазора  0:00:02.00

     Пиковый уровень 84.7 %
     Качество трека 100.0 %
     CRC теста 3CE43313
     CRC копии 3CE43313
     Копирование... OK

Трек  2
     Имя файла D:\JAZZ\Sam Taylor_Standard Best Collection\CD2\02_Feelings.ape

     Пиковый уровень 76.8 %
     Качество трека 100.0 %
     CRC теста 380E6B76
     CRC копии 380E6B76
     Копирование... OK

Трек  3
     Имя файла D:\JAZZ\Sam Taylor_Standard Best Collection\CD2\03_C'est Irreparable.ape

     Пиковый уровень 73.2 %
     Качество трека 100.0 %
     CRC теста FBC03ED7
     CRC копии FBC03ED7
     Копирование... OK

Трек  4
     Имя файла D:\JAZZ\Sam Taylor_Standard Best Collection\CD2\04_The Last Waltz.ape

     Пиковый уровень 75.6 %
     Качество трека 100.0 %
     CRC теста F8584138
     CRC копии F8584138
     Копирование... OK

Трек  5
     Имя файла D:\JAZZ\Sam Taylor_Standard Best Collection\CD2\05_Che Vuole Questa Nusica Stasera.ape

     Пиковый уровень 89.1 %
     Качество трека 100.0 %
     CRC теста 60D61F96
     CRC копии 60D61F96
     Копирование... OK

Трек  6
     Имя файла D:\JAZZ\Sam Taylor_Standard Best Collection\CD2\06_Strangers In The Night.ape

     Пиковый уровень 86.7 %
     Качество трека 100.0 %
     CRC теста A811094D
     CRC копии A811094D
     Копирование... OK

Трек  7
     Имя файла D:\JAZZ\Sam Taylor_Standard Best Collection\CD2\07_I Left My Heart In San Francisco.ape

     Пиковый уровень 73.5 %
     Качество трека 100.0 %
     CRC теста 25FBABF6
     CRC копии 25FBABF6
     Копирование... OK

Трек  8
     Имя файла D:\JAZZ\Sam Taylor_Standard Best Collection\CD2\08_My Way.ape

     Пиковый уровень 94.4 %
     Качество трека 100.0 %
     CRC теста ABBA5958
     CRC копии ABBA5958
     Копирование... OK

Трек  9
     Имя файла D:\JAZZ\Sam Taylor_Standard Best Collection\CD2\09_Yesterday.ape

     Пиковый уровень 95.0 %
     Качество трека 100.0 %
     CRC теста 1FFC8216
     CRC копии 1FFC8216
     Копирование... OK

Трек 10
     Имя файла D:\JAZZ\Sam Taylor_Standard Best Collection\CD2\10_This Masquerade.ape

     Пиковый уровень 81.5 %
     Качество трека 100.0 %
     CRC теста D752547A
     CRC копии D752547A
     Копирование... OK

Трек 11
     Имя файла D:\JAZZ\Sam Taylor_Standard Best Collection\CD2\11_Love Is A Many Splendored Thing.ape

     Пиковый уровень 76.4 %
     Качество трека 100.0 %
     CRC теста 517E299D
     CRC копии 517E299D
     Копирование... OK

Трек 12
     Имя файла D:\JAZZ\Sam Taylor_Standard Best Collection\CD2\12_Love Me With All Your Heart.ape

     Пиковый уровень 83.9 %
     Качество трека 100.0 %
     CRC теста 2AAF6BA7
     CRC копии 2AAF6BA7
     Копирование... OK

Трек 13
     Имя файла D:\JAZZ\Sam Taylor_Standard Best Collection\CD2\13_A Whiter Shade Of Pale.ape

     Пиковый уровень 72.8 %
     Качество трека 100.0 %
     CRC теста 1CEBA971
     CRC копии 1CEBA971
     Копирование... OK

Трек 14
     Имя файла D:\JAZZ\Sam Taylor_Standard Best Collection\CD2\14_Green Green Grass Of Home.ape

     Пиковый уровень 89.0 %
     Качество трека 100.0 %
     CRC теста 432E04D8
     CRC копии 432E04D8
     Копирование... OK

Трек 15
     Имя файла D:\JAZZ\Sam Taylor_Standard Best Collection\CD2\15_The Girl From Ipanema.ape

     Пиковый уровень 75.4 %
     Качество трека 100.0 %
     CRC теста EB2B4B8E
     CRC копии EB2B4B8E
     Копирование... OK

Трек 16
     Имя файла D:\JAZZ\Sam Taylor_Standard Best Collection\CD2\16_Tombe La Neige.ape

     Пиковый уровень 94.0 %
     Качество трека 100.0 %
     CRC теста 77386159
     CRC копии 77386159
     Копирование... OK

Ошибок не произошло


Конец отчёта
Отчёт EAC об извлечении, выполненном 31. августа 2006, 14:10 для диска:
Sam Taylor / Best

Дисковод: MITSUMI CR-48XATE   Adapter: 1  ID: 3
Режим чтения: Достоверный (C2: да, Точный поток: да, Отключение кэша: да)
Коррекция смещения при чтении: 0
Способность читать области Lead-in и Lead-out : Нет

Выходной формат: Monkey's Audio Lossless Encoder v3.99 DLL
                     High Lossless Compression

Другие параметры: 
    Заполнение пропущенных сэмплов тишиной : Да
    Удаление блоков с тишиной в начале и конце : Нет
    Установленный внешний ASPI-интерфейс


Трек  1
     Имя файла D:\JAZZ\Sam Taylor_Standard Best Collection\Bonus\01_Besame Mucho.ape

     Длина предзазора  0:00:02.00

     Пиковый уровень 85.1 %
     Качество трека 100.0 %
     CRC теста 943C3CBA
     CRC копии 943C3CBA
     Копирование... OK

Трек  2
     Имя файла D:\JAZZ\Sam Taylor_Standard Best Collection\Bonus\02_The Shadow Of Your Smile.ape

     Длина предзазора  0:00:02.00

     Пиковый уровень 100.0 %
     Качество трека 100.0 %
     CRC теста 7F542344
     CRC копии 7F542344
     Копирование... OK

Трек  3
     Имя файла D:\JAZZ\Sam Taylor_Standard Best Collection\Bonus\03_Moon River.ape

     Длина предзазора  0:00:02.00

     Пиковый уровень 100.0 %
     Качество трека 100.0 %
     CRC теста C09EDE2C
     CRC копии C09EDE2C
     Копирование... OK

Трек  4
     Имя файла D:\JAZZ\Sam Taylor_Standard Best Collection\Bonus\04_Bonus04.ape

     Длина предзазора  0:00:02.00

     Пиковый уровень 100.0 %
     Качество трека 99.9 %
     CRC теста C9735325
     CRC копии C9735325
     Копирование... OK

Трек  5
     Имя файла D:\JAZZ\Sam Taylor_Standard Best Collection\Bonus\05_Bonus05.ape

     Длина предзазора  0:00:02.00

     Пиковый уровень 98.5 %
     Качество трека 100.0 %
     CRC теста 1324E2F1
     CRC копии 1324E2F1
     Копирование... OK

Трек  6
     Имя файла D:\JAZZ\Sam Taylor_Standard Best Collection\Bonus\06_Bonus06.ape

     Длина предзазора  0:00:02.00

     Пиковый уровень 100.0 %
     Качество трека 100.0 %
     CRC теста BB05B81A
     CRC копии BB05B81A
     Копирование... OK

Трек  7
     Имя файла D:\JAZZ\Sam Taylor_Standard Best Collection\Bonus\07_Bonus07.ape

     Длина предзазора  0:00:02.00

     Пиковый уровень 98.5 %
     Качество трека 100.0 %
     CRC теста 49BB9BE1
     CRC копии 49BB9BE1
     Копирование... OK

Трек  8
     Имя файла D:\JAZZ\Sam Taylor_Standard Best Collection\Bonus\08_Bonus08.ape

     Длина предзазора  0:00:02.00

     Пиковый уровень 100.0 %
     Качество трека 100.0 %
     CRC теста 445B3FAA
     CRC копии 445B3FAA
     Копирование... OK

Трек  9
     Имя файла D:\JAZZ\Sam Taylor_Standard Best Collection\Bonus\09_Bonus09.ape

     Длина предзазора  0:00:02.00

     Пиковый уровень 100.0 %
     Качество трека 100.0 %
     CRC теста 999CBC10
     CRC копии 999CBC10
     Копирование... OK

Трек 10
     Имя файла D:\JAZZ\Sam Taylor_Standard Best Collection\Bonus\10_Bonus10.ape

     Длина предзазора  0:00:02.00

     Пиковый уровень 100.0 %
     Качество трека 100.0 %
     CRC теста 4B54F0B5
     CRC копии 4B54F0B5
     Копирование... OK

Трек 11
     Имя файла D:\JAZZ\Sam Taylor_Standard Best Collection\Bonus\11_Bonus11.ape

     Длина предзазора  0:00:02.00

     Пиковый уровень 100.0 %
     Качество трека 100.0 %
     CRC теста 274F6186
     CRC копии 274F6186
     Копирование... OK

Трек 12
     Имя файла D:\JAZZ\Sam Taylor_Standard Best Collection\Bonus\12_Bonus12.ape

     Длина предзазора  0:00:02.00

     Пиковый уровень 100.0 %
     Качество трека 100.0 %
     CRC теста EABB6CD1
     CRC копии EABB6CD1
     Копирование... OK

Трек 13
     Имя файла D:\JAZZ\Sam Taylor_Standard Best Collection\Bonus\13_Bonus13.ape

     Длина предзазора  0:00:02.00

     Пиковый уровень 100.0 %
     Качество трека 100.0 %
     CRC теста B14AA470
     CRC копии B14AA470
     Копирование... OK

Трек 14
     Имя файла D:\JAZZ\Sam Taylor_Standard Best Collection\Bonus\14_Bonus14.ape

     Длина предзазора  0:00:02.00

     Пиковый уровень 100.0 %
     Качество трека 100.0 %
     CRC теста B5F22E63
     CRC копии B5F22E63
     Копирование... OK

Ошибок не произошло


Конец отчёта
Приватный:
Да (DHT отключён)
Размер:
776.19 Мб (813,894,373 байт) » файлов: 60
Участники:
0 раздают, 0 качают (0 участников всего)
Внешние участники:
Нет внешних трекеров [ Обновить ]
18:36
46
RSS
Нет комментариев. Ваш будет первым!