Поиск

1990 Keiko Matsui - No Borders {MCA MCAD-6380}

1990 Keiko Matsui - No Borders {MCA MCAD-6380}
Страна-производитель диска (релиза):
USA
Дата издания диска:
1990
Издатель (лейбл):
Номер по каталогу:
MCAD-6380
Носитель:
CD
Битрейт аудио:
lossless
Аудиокодек:
APE (*.ape)
Тип рипа:
image+.cue
Время звучания:
46:36
Наличие сканов:
  • web
Релизёр (источник):
DrStandBy

Состав:
  • Maxi Anderson    Vocals (Background)
  • Bill Armstrong    Trumpet
  • Phil Ayling    Horn (English), Oboe, Recorder
  • Lenny Castro    Percussion
  • Rob Chiarelli    Engineer
  • Vinnie Colaiuta    Drums
  • Nathan East    Bass
  • Michael Fisher    Percussion
  • Robben Ford    Guitar
  • Grant Geissman    Guitar
  • Alan Hirshberg    Engineer
  • Steven Holtman    Trombone
  • Paul Jackson, Jr.    Guitar
  • Clay Jenkins    Flugelhorn, Trumpet
  • Jimmy Johnson    Bass
  • Suzie Katayama    Accordion, Cello
  • Pat Kelly    Guitar
  • Eric Marienthal    Flute, Saxophone
  • Kazu Matsui    Producer, Shakuhachi
  • Keiko Matsui    Composer, Keyboards
  • Gary Meek    Saxophone
  • Joe Meyer    French Horn
  • Bill Meyers    Arranger, Synthesizer
  • Derek Nakamoto    Arranger, Synthesizer, Synthesizer Strings
  • Phil Perry    Vocals
  • Joel Peskin    Saxophone
  • Rob Seifert    Engineer
  • Leland Sklar    Bass
  • Gary Stockdale    Arranger, Synthesizer
  • Neil Stubenhaus    Bass
  • L. Subramaniam    Violin
  • Carlos Vega    Drums
  • Greg Walker    Vocals
  • Tom Walsh    Drums
  • "Ready" Freddie Washington    Bass

01. The First Four Years    4:45
02. Light In The Rain    4:33
03. The White Corridor    4:39
04. Mover    4:39
05. The Wind And The Wolf    5:20
06. In The Mist    3:26
07. Three Silhouettes    4:55
08. Kappa (Water Elf)    4:37
09. Souvenir    4:36
10. Believer    4:35

Записано в:

  • Aire L.A. Studios, Glendale, CA
  • Mad Hatter Studios, Los Angeles, CA
  • Milagro Sound Recorders, Glendale, CA
  • Studio Sound Recorders, North Hollywood, CA
Лог создания рипа
EAC extraction logfile from 21. October 2005, 22:03 for CD
Keiko Matsui / No Borders

Used drive  : HL-DT-STDVDRAM GSA-4163B   Adapter: 2  ID: 1
Read mode   : Secure with NO C2, accurate stream, disable cache
Read offset correction : 0
Overread into Lead-In and Lead-Out : No

Used output format : Internal WAV Routines
                     44.100 Hz; 16 Bit; Stereo

Other options      :
    Fill up missing offset samples with silence : Yes
    Delete leading and trailing silent blocks : No
    Installed external ASPI interface

Range status and errors
Selected range
     Filename E:\ARCHIVE\Keiko Maatsui - No borders (EAC-APE)by papulya\CDImage.wav

     Peak level 100.0 %
     Range quality 100.0 %
     CRC 534A61E3
     Copy OK

No errors occured

End of status report
Содержание индексной карты (.CUE)
PERFORMER "Keiko Matsui"
TITLE "No Borders"
FILE "CDImage.wav" WAVE
  TRACK 01 AUDIO
    TITLE "The First Four Years"
    PERFORMER "Keiko Matsui"
    ISRC USMC18931040
    INDEX 01 00:00:00
  TRACK 02 AUDIO
    TITLE "Light in the Rain"
    PERFORMER "Keiko Matsui"
    INDEX 01 04:47:50
  TRACK 03 AUDIO
    TITLE "The White Corridor"
    PERFORMER "Keiko Matsui"
    ISRC USMC18931042
    INDEX 01 09:24:20
  TRACK 04 AUDIO
    TITLE "Mover"
    PERFORMER "Keiko Matsui"
    ISRC USMC18931041
    INDEX 01 14:07:05
  TRACK 05 AUDIO
    TITLE "The Wind and the Wolf"
    PERFORMER "Keiko Matsui"
    ISRC USMC18931044
    INDEX 01 18:49:15
  TRACK 06 AUDIO
    TITLE "In the Mist"
    PERFORMER "Keiko Matsui"
    INDEX 01 24:11:67
  TRACK 07 AUDIO
    TITLE "Three Silhouettes"
    PERFORMER "Keiko Matsui"
    ISRC USMC18931037
    INDEX 01 27:41:27
  TRACK 08 AUDIO
    TITLE "Kappa (Water Elf)"
    PERFORMER "Keiko Matsui"
    ISRC USMC18931037
    INDEX 01 32:41:27
  TRACK 09 AUDIO
    TITLE "Souvenir"
    PERFORMER "Keiko Matsui"
    INDEX 01 37:18:60
  TRACK 10 AUDIO
    TITLE "Believer"
    PERFORMER "Keiko Matsui"
    INDEX 01 41:58:67
Скачивание доступно после регистрации!!
Приватный:
Нет (DHT включён)
Размер:
262.21 Мб (274,948,648 байт) » файлов: 3
Участники:
0 раздают, 0 качают (0 участников всего)
Внешние участники:
--- [ Обновить ]
14:15
226
RSS
Нет комментариев. Ваш будет первым!