Поиск

2006 Giovanni Guidi Trio - Tomorrow Never Knows (2019) {Venus} [DSD64 ISO]

2006 Giovanni Guidi Trio - Tomorrow Never Knows (2019) {Venus} [DSD64 ISO]
Стили:
Дата записи диска:
5 января - 6 января 2006
Место записи:
The House Recording Studio, Rome, Italy
Дата переиздания диска:
17 апреля 2019
Издатель (лейбл):
Номер по каталогу:
VHGD-337
Носитель:
SACD
Формат:
DSD
Тип рипа:
image
Контейнер:
ISO (*.iso)
Количество каналов:
2.0
Разрядность/ЧД:
64 (2,8 MHz/1 Bit)
Битрейт аудио:
lossless
Время звучания:
00:52:44
Наличие сканов:
только обложка

Треклист:

01. Sleep Safe and Warm  03:47
02. Turnaround  05:36
03. Joga  04:52
04. By This River  02:24
05. Back in the USSR  04:10
06. Begatto's Kitchen  03:17
07. Tomorrow Never Know  03:57
08. Bella  04:43
09. Motion Picture Soundtrack  04:12
10. Norwegian Wood  03:31
11. Duff  04:33
12. Alice in Neverland  04:28
13. Girotondo Per Francis  03:07

Состав:
  •     Bass – Francesco Ponticelli
  •     Drums – Emanuele Maniscalco
  •     Engineer [Assistant] – Cristiano Fini
  •     Engineer [Engineered By] – Emanuele Bossi
  •     Management [Artist Management] – M.G.M. Produzioni Musicali
  •     Mixed By, Mastered By – Tetsuo Hara
  •     Piano – Giovanni Guidi
  •     Producer [Produced By] – Tetsuo Hara
Лог проверки качества
foobar2000 1.6.8 / Dynamic Range Meter 1.1.1
log date: 2021-12-09 20:52:12
--------------------------------------------------------------------------------
Analyzed: GIOVANNI GUIDI TRIO / Tomorrow Never Knows
--------------------------------------------------------------------------------
DR         Peak         RMS     Duration Track
--------------------------------------------------------------------------------
DR6       -5.42 dB   -15.15 dB      3:48 01-Sleep Safe And Warm
DR7       -5.44 dB   -15.80 dB      5:37 02-Turnaround
DR7       -5.19 dB   -16.31 dB      4:52 03-Jóga
DR10      -5.55 dB   -20.46 dB      2:24 04-By This River
DR8       -5.38 dB   -16.00 dB      4:10 05-Back In The USSR
DR12      -5.47 dB   -20.22 dB      3:18 06-Begatto's Kitchen
DR8       -5.12 dB   -16.25 dB      3:58 07-Tomorrow Never Knows
DR7       -5.27 dB   -15.95 dB      4:44 08-Bella
DR9       -5.45 dB   -17.64 dB      4:12 09-Motion Picture Soundtrack
DR7       -4.91 dB   -15.11 dB      3:32 10-Norwegian Wood
DR7       -5.09 dB   -14.50 dB      4:34 11-Duff
DR6       -4.92 dB   -16.16 dB      4:29 12-Alice In Neverland
DR7       -5.07 dB   -14.73 dB      3:09 13-Girotondo Per Francis
--------------------------------------------------------------------------------
Number of tracks:  13
Official DR value: DR8
Samplerate:        2822400 Hz / PCM Samplerate: 88200 Hz
Channels:          2
Bits per sample:   1
Bitrate:           5645 kbps
Codec:             DSD64
================================================================================
По всем вопросам пишите личное сообщение пользователю M0p94ok.
10:00
103
Нет комментариев. Ваш будет первым!