Поиск

2016 Jenna Mammina & Alex de Grassi - Walk The Sky {Blue Coast} [DSD256]

2016 Jenna Mammina & Alex de Grassi - Walk The Sky {Blue Coast} [DSD256]
Стили:
Носитель:
WEB
Формат:
DSD
Тип рипа:
tracks
Контейнер:
DSF (*.dsf)
Количество каналов:
2.0
Разрядность/ЧД:
256 (11.2MHz/1bit)
Битрейт аудио:
lossless
Время звучания:
00:41:25
Наличие сканов:
только обложка

Все преобразования были сделаны из исходных миксов DSD256. После нескольких тестов с завязанными глазами, по нашему мнению, лучше всего звучат файлы DSF256, затем DSF128. Лучший звук PCM - это WAV192. Разница минимальна. Мы рекомендуем вам приобретать файлы для вашего лучшего домашнего ЦАПа. ЦАП будет иметь большее значение, чем тип файла. Некоторые ЦАПы не совместимы с DSD256.

01. This Can't Be Love
02. On and On
03. Throw It Away
04. King of Pain
05. Second Star to the Right
06. Celebrate Me Home
07. The Music Is The Magic
08. In Your Eyes
09. It Ain't Necessarily So
10. May You Never
11. Cracker Box Palace
12. If I Have To Go

Состав:
  • Jenna Mammina, vocals
  • Alex de Grassi, guitar
  • Recorded by Cookie Marenco and Leslie Ann Jones
  • Mixed and Mastered by Cookie Marenco


ESE LogoExtended Sound Environment (E.S.E.)

Assistant Engineers: Dann Michael Thompson, Patrick O'Connor, Elena Brewster, Sean Beresford

Special Thanks to Leslie Ann Jones, Dann Michael Thompson of Skywalker Sound; Kazunori Fukuda, Tetsuya Nakamura of Primeseat and David Robinson of Positive Feedback for the use of his Pyramix system.

Лог проверки качества
foobar2000 1.6.5 / Замер динамического диапазона (DR) 1.1.1
Дата отчёта:  2021-12-09 17:55:16
--------------------------------------------------------------------------------
Анализ:   Jenna Mammina & Alex de Grassi / Walk The Sky
--------------------------------------------------------------------------------
DR         Пики         RMS           Продолжительность трека
--------------------------------------------------------------------------------
DR15      -9.62 дБ   -29.38 дБ      2:27 01-This Can't Be Love
DR12     -12.12 дБ   -28.76 дБ      2:34 02-On and On
DR14     -12.20 дБ   -29.93 дБ      5:18 03-Throw It Away
DR13     -11.21 дБ   -27.59 дБ      4:32 04-King of Pain
DR13     -12.30 дБ   -31.58 дБ      4:00 05-Second Star to the Right
DR13     -10.23 дБ   -28.19 дБ      3:42 06-Celebrate Me Home
DR13     -16.65 дБ   -34.28 дБ      1:59 07-The Music Is The Magic
DR15      -8.96 дБ   -28.27 дБ      3:51 08-In Your Eyes
DR16      -9.35 дБ   -30.76 дБ      4:11 09-It Ain't Necessarily So
DR18      -7.27 дБ   -29.46 дБ      3:20 10-May You Never
DR12     -15.44 дБ   -31.41 дБ      2:45 11-Cracker Box Palace
DR13     -13.73 дБ   -32.89 дБ      2:45 12-If I Have To Go
--------------------------------------------------------------------------------
Количество треков: 12
Реальные значения DR: DR14
Частота:   11289600 Гц / Частота PCM: 176400 Гц
Каналов:   2
Разрядность:   1
Битрейт:   22579 кбит/с
Кодек:   DSD256
================================================================================
Приватный:
Нет (DHT включён)
Размер:
6.58 Гб (7,061,638,287 байт) » файлов: 15
Участники:
0 раздают, 0 качают (0 участников всего)
Внешние участники:
7 раздают, 2 качают (9 участников всего) [ Обновить ]
22:29
423
Нет комментариев. Ваш будет первым!