Поиск

2021 Don Byas - All That Jazz, Vol. 135: Bopping Ballads {Jube Legends} [24-48]

2021 Don Byas - All That Jazz, Vol. 135: Bopping Ballads {Jube Legends} [24-48]
Стили:
Дата издания диска:
5 февраля 2021
Издатель (лейбл):
Носитель:
WEB
Формат:
PCM
Тип рипа:
tracks
Контейнер:
FLAC (*.flac)
Количество каналов:
2.0
Разрядность/ЧД:
24/48
Битрейт аудио:
lossless
Наличие сканов:
только обложка

01 - All the Things You Are 05:57
02 - I Remember Clifford 03:44
03 - Autumn in New York 04:02
04 - Just One of Those Things 03:15
05 - Montmartre Blues 04:06
06 - More Than You Know 04:28
07 - Yesterdays 05:44
08 - These Foolish Things (Remind Me of You) [Live] 05:14
09 - Montmartre Blues (Live) 04:06
10 - Just One of Those Things (Live) 06:24
11 - I Remember Clifford (Live) 04:15
12 - How High the Moon (Live) 03:30
13 - Back Home in Indiana (Live) 08:05

Лог проверки качества
foobar2000 1.4.3 / Dynamic Range Meter 1.1.1
log date: 2021-12-09 16:30:02
--------------------------------------------------------------------------------
Analyzed: Don Byas / All That Jazz, Vol. 135: Don Byas – Bopping Ballads
--------------------------------------------------------------------------------
DR         Peak         RMS     Duration Track
--------------------------------------------------------------------------------
DR13      -0.03 dB   -15.53 dB      5:57 01-All the Things You Are
DR13      -0.03 dB   -15.86 dB      3:45 02-I Remember Clifford
DR13      -0.03 dB   -15.34 dB      4:02 03-Autumn in New York
DR13      -0.03 dB   -15.92 dB      3:16 04-Just One of Those Things
DR13      -0.03 dB   -15.86 dB      4:07 05-Montmartre Blues
DR11      -0.33 dB   -14.50 dB      4:29 06-More Than You Know
DR13      -0.03 dB   -16.57 dB      5:44 07-Yesterdays
DR16      -0.03 dB   -19.73 dB      5:14 08-These Foolish Things (Remind Me of You) [Live]
DR11      -0.03 dB   -13.16 dB      4:07 09-Montmartre Blues (Live)
DR11      -0.03 dB   -13.42 dB      6:25 10-Just One of Those Things (Live)
DR11      -0.03 dB   -14.99 dB      4:16 11-I Remember Clifford (Live)
DR14      -0.03 dB   -16.56 dB      3:31 12-How High the Moon (Live)
DR12      -2.03 dB   -16.62 dB      8:05 13-Back Home in Indiana (Live)
--------------------------------------------------------------------------------
Number of tracks:  13
Official DR value: DR13
Samplerate:        48000 Hz
Channels:          2
Bits per sample:   24
Bitrate:           802 kbps
Codec:             FLAC
================================================================================
Приватный:
Нет (DHT включён)
Размер:
540.63 Мб (566,895,407 байт) » файлов: 18
Участники:
0 раздают, 0 качают (0 участников всего)
Внешние участники:
3 раздают, 1 качают (4 участников всего) [ Обновить ]
18:30
452
Нет комментариев. Ваш будет первым!