Поиск

2005 Tommy Flanagan - Solo Piano (2021) {Storyville} [24-96]

2005 Tommy Flanagan - Solo Piano (2021) {Storyville} [24-96]
Дата записи диска:
25 февраля - 26 февраля 1974
Дата издания диска:
14 июня 2014
Дата переиздания диска:
18 июня 2021
Издатель (лейбл):
Носитель:
WEB
Формат:
PCM
Тип рипа:
tracks
Контейнер:
FLAC (*.flac)
Количество каналов:
2.0
Разрядность/ЧД:
24/96
Битрейт аудио:
lossless
Время звучания:
00:46:26
Наличие сканов:
только обложка

Треклист:

01 - Parisian Thoroughfare 03:33
02 - Wail 02:35
03 - Isn't It Romantic 03:34
04 - Sleepin' Bee 04:43
05 - Yesterdays 03:26
06 - Stompin' At The Savoy 04:39
07 - Strayhorn Medley 11:47
08 - Con Alma 03:04
09 - If You Could See Me Now 03:23
10 - Ruby My Dear 02:59
11 - Lover 02:43

Состав:
  • Tommy Flanagan     Piano
  • Anders Stefansen     Audio Production, Producer
  • Scott Yanow     Liner Notes
Лог проверки качества
foobar2000 1.6.2 / Dynamic Range Meter 1.1.1
log date: 2021-06-18 16:21:04
--------------------------------------------------------------------------------
Analyzed: Tommy Flanagan / Solo Piano
--------------------------------------------------------------------------------
DR         Peak         RMS     Duration Track
--------------------------------------------------------------------------------
DR10      -0.32 dB   -13.21 dB      3:33 01-Parisian Thoroughfare
DR10       0.00 dB   -12.48 dB      2:36 02-Wail
DR12      -1.56 dB   -17.72 dB      3:34 03-Isn't It Romantic
DR13      -2.27 dB   -20.15 dB      4:44 04-Sleepin' Bee
DR13      -2.98 dB   -19.14 dB      3:27 05-Yesterdays
DR10       0.00 dB   -12.42 dB      4:40 06-Stompin' At The Savoy
DR11       0.00 dB   -13.49 dB     11:48 07-Strayhorn Medley
DR15      -1.32 dB   -22.53 dB      3:04 08-Con Alma
DR14      -6.19 dB   -25.24 dB      3:24 09-If You Could See Me Now
DR13      -1.79 dB   -19.59 dB      2:59 10-Ruby My Dear
DR14      -2.58 dB   -21.28 dB      2:43 11-Lover
--------------------------------------------------------------------------------
Number of tracks:  11
Official DR value: DR12
Samplerate:        96000 Hz
Channels:          2
Bits per sample:   24
Bitrate:           2566 kbps
Codec:             FLAC
================================================================================
По всем вопросам пишите личное сообщение пользователю M0p94ok.
17:20
184
Нет комментариев. Ваш будет первым!