Поиск

1957 Carol Stevens - That Satin Doll (2021) {RevOla} [24-44.1]

1957 Carol Stevens - That Satin Doll (2021) {RevOla} [24-44.1]
Дата записи диска:
февраль - март 1957
Место записи:
New York City, NY, USA
Дата переиздания диска:
30 июля 2021
Издатель (лейбл):
Носитель:
WEB
Формат:
PCM
Тип рипа:
tracks
Контейнер:
FLAC (*.flac)
Количество каналов:
2.0
Разрядность/ЧД:
24/44,1
Битрейт аудио:
lossless
Время звучания:
00:30:59
Наличие сканов:
только обложка

Треклист:

01 - In A Mellotone (02:23)
02 - Satin Doll (02:47)
03 - Saved It For You (02:05)
04 - Everywhere (03:12)
05 - Mood For You (02:31)
06 - Lurelei (02:39)
07 - Romance In The Dark (02:57)
08 - Lying In The Hay (02:59)
09 - I'm Playing With Fire (01:34)
10 - Tender As A Rose (03:20)
11 - Keep On Doin' What You're Doin' (02:16)
12 - At Last (02:11)

Состав:
  •     Bass – Milt Hinton
  •     Bass Clarinet – Bernard Kaufman (tracks: 2, 4 to 7, 9 to 12), Sol Schlinger (tracks: 1, 3, 8)
  •     Drums – Osie Johnson
  •     Engineer – Tom Dowd
  •     English Horn, Clarinet – Phil Bodner (tracks: 1, 3, 8)
  •     Flute – Bernard Kaufman (tracks: 2, 4 to 7, 9 to 12)
  •     Flute [Alto] – Herbie Mann (tracks: 1, 3, 8)
  •     Guitar – Barry Galbraith
  •     Percussion – Phil Kraus (tracks: 1, 3, 8)
  •     Piano – Frank Berry (4)
  •     Piano, Directed By [Musical Director] – Phil Moore (2)
  •     Trombone – Eddie Bert (tracks: 1, 3, 8), Warren Covington (tracks: 2, 4 to 7, 9 to 12)
  •     Trumpet – Nick Travis (tracks: 1, 3, 8)
  •     Trumpet, Mellophone – Don Elliott (tracks: 2, 4 to 7, 9 to 12)
  •     Vibraphone – Bobby Rosengarden (tracks: 2, 4 to 7, 9 to 12)
  •     Vocals – Carol Stevens
  •     Woodwind – Romeo Penque (tracks: 2, 4 to 7, 9 to 12)
Лог проверки качества
foobar2000 1.4.2 / Dynamic Range Meter 1.1.1
log date: 2021-08-11 09:20:45
--------------------------------------------------------------------------------
Analyzed: Carol Stevens / That Satin Doll
--------------------------------------------------------------------------------
DR         Peak         RMS     Duration Track
--------------------------------------------------------------------------------
DR11      -0.12 dB   -14.13 dB      2:24 01-In A Mellotone (Remastered)
DR10      -0.70 dB   -14.92 dB      2:48 02-Satin Doll (Remastered)
DR10      -1.41 dB   -15.03 dB      2:06 03-Saved It For You (Remastered)
DR11      -2.19 dB   -16.39 dB      3:12 04-Everywhere (Remastered)
DR11      -0.76 dB   -16.21 dB      2:31 05-Mood For You (Remastered)
DR10      -1.67 dB   -16.10 dB      2:40 06-Lurelei (Remastered)
DR11      -1.55 dB   -16.27 dB      2:57 07-Romance In The Dark (Remastered)
DR10      -0.53 dB   -17.41 dB      2:59 08-Lying In The Hay (Remastered)
DR11      -0.98 dB   -15.89 dB      1:34 09-I'm Playing With Fire (Remastered)
DR13      -0.59 dB   -17.80 dB      3:20 10-Tender As A Rose (Remastered)
DR11      -0.36 dB   -14.60 dB      2:16 11-Keep On Doin' What You're Doin' (Remastered)
DR11       0.00 dB   -14.39 dB      2:11 12-At Last (Remastered)
--------------------------------------------------------------------------------
Number of tracks:  12
Official DR value: DR11
Samplerate:        96000 Hz
Channels:          2
Bits per sample:   24
Bitrate:           2459 kbps
Codec:             FLAC
================================================================================
Download available for power users only.
12:10
210
Нет комментариев. Ваш будет первым!