Поиск

2021 Bululú - Un Venezuela Imaginaire {Arfi} [24-44.1]

2021 Bululú - Un Venezuela Imaginaire {Arfi} [24-44.1]
Дата издания диска:
23 июля 2021
Носитель:
WEB
Формат:
PCM
Тип рипа:
tracks
Контейнер:
FLAC (*.flac)
Количество каналов:
2.0
Разрядность/ЧД:
24/44,1
Битрейт аудио:
lossless
Время звучания:
00:56:59
Наличие сканов:
только обложка

Треклист:

01. Canto de Lavanderas  02:43
02. Cantos de Trabajo  05:45
03. El Yojo  07:25
04. Equilibrio  06:09
05. Canto de Ordeño  02:02
06. Mi Merengue  07:41
07. Warao  06:11
08. La Ruperta  06:31
09. María María  05:41
10. Faena Yojo  06:47

Лог проверки качества
foobar2000 1.4.2 / Dynamic Range Meter 1.1.1
log date: 2021-08-03 14:23:29
--------------------------------------------------------------------------------
Analyzed: BululГє / Un Venezuela imaginaire
--------------------------------------------------------------------------------
DR         Peak         RMS     Duration Track
--------------------------------------------------------------------------------
DR12      -0.38 dB   -16.66 dB      2:43 01-Canto de Lavanderas
DR12      -0.21 dB   -16.60 dB      5:46 02-Cantos de Trabajo
DR12      -0.21 dB   -16.06 dB      7:25 03-El Yojo
DR12      -0.21 dB   -14.49 dB      6:09 04-Equilibrio
DR12      -7.48 dB   -23.40 dB      2:03 05-Canto de OrdeГ±o
DR13      -0.21 dB   -15.99 dB      7:42 06-Mi Merengue
DR12      -0.21 dB   -16.48 dB      6:11 07-Warao
DR12      -0.21 dB   -14.68 dB      6:31 08-La Ruperta
DR12      -0.21 dB   -16.94 dB      5:42 09-MarГ­a MarГ­a
DR12      -0.21 dB   -16.28 dB      6:47 10-Faena Yojo
--------------------------------------------------------------------------------
Number of tracks:  10
Official DR value: DR12
Samplerate:        44100 Hz
Channels:          2
Bits per sample:   24
Bitrate:           1279 kbps
Codec:             FLAC
================================================================================
По всем вопросам пишите личное сообщение пользователю M0p94ok.
23:12
157
Нет комментариев. Ваш будет первым!