Поиск

2005 Andrea Pozza Trio - Sweet Lorraine (2018) {Venus VHGD-271} [DSD64]

2005 Andrea Pozza Trio - Sweet Lorraine (2018) {Venus VHGD-271} [DSD64]
Место записи:
Mondial Sound, Milan, Italy
Издатель (лейбл):
Номер по каталогу:
VHGD-271
Битрейт аудио:
lossless

Треклист:

01. Yesterdays  06:44
02. I Love You  05:28
03. Sweet Lorraine  05:11
04. Alone Together  05:20
05. All Too Soon  04:31
06. Crazy He Calls Me  06:32
07. If I Should Lose You  04:57
08. If I Had You  05:58
09. I'll Be Seeing You  05:33
10. I Want to Be Happy  04:34
11. Orson  02:29
12. Poor Butterfly  05:30

Доп. инфо:

Формат записи/Источник записи: [SACD-R][OF]
Наличие водяных знаков: Нет
Год издания/переиздания диска: 2005/2018
Продолжительность: 01:02:48
Наличие сканов в содержимом раздачи: Только обложка альбома

Контейнер: ISO (*.iso)
Тип рипа: image
Разрядность: 64(2,8 MHz/1 Bit)
Формат: DSD
Количество каналов: 2.0

Доп. информация: venusrecords
Источник (релизер): jazzy pic

Лог проверки качества
foobar2000 1.6.2 / Замер динамического диапазона (DR) 1.1.1
Дата отчёта:  2021-01-05 12:28:39

--------------------------------------------------------------------------------
Анализ:   ANDREA POZZA TRIO / Sweet Lorraine
--------------------------------------------------------------------------------

DR         Пики         RMS           Продолжительность трека
--------------------------------------------------------------------------------
DR8       -3.02 дБ   -13.61 дБ      6:44 01-Yeaterdays
DR8       -2.85 дБ   -13.39 дБ      5:28 02-I Love You
DR9       -2.90 дБ   -14.45 дБ      5:11 03-Sweet Lorraine
DR9       -3.02 дБ   -13.64 дБ      5:20 04-Alone Together
DR10      -2.94 дБ   -15.25 дБ      4:31 05-All Too Soon
DR10      -3.06 дБ   -15.60 дБ      6:32 06-Crazy He Calls Me
DR9       -2.86 дБ   -13.21 дБ      4:57 07-If I Should Lose You
DR9       -3.10 дБ   -13.75 дБ      5:58 08-If I Had You
DR9       -3.05 дБ   -14.73 дБ      5:33 09-I'll Be Seeing You
DR8       -2.89 дБ   -12.36 дБ      4:34 10-I Want To Be Happy
DR11      -3.49 дБ   -18.10 дБ      2:30 11-Orson
DR9       -3.16 дБ   -14.55 дБ      5:30 12-Poor Butterfly
--------------------------------------------------------------------------------

Количество треков: 12
Реальные значения DR: DR9

Частота:  2822400 Гц / Частота PCM: 352800 Гц
Каналов:  2
Разрядность:   1
Битрейт:  5645 кбит/с
Кодек:   DSD64
================================================================================
Приватный:
Нет (DHT включён)
Размер:
2.53 Гб (2,712,829,247 байт) » файлов: 4
Участники:
1 раздают, 0 качают (1 участников всего)
Внешние участники:
5 раздают, 2 качают (7 участников всего) [ Обновить ]
No seeders - write personal message to M0p94ok. Any questions - support@pro-jazz.com.
Нет сидеров - пишите в личку M0p94ok. Есть вопросы - support@pro-jazz.com
10:38
109
Нет комментариев. Ваш будет первым!