Вы используете незарегистрированную версию компонента "Вкладки"!

Поиск

2018 Tom Bourgeois - Murmures {Neuklang NCD4184} [24-96]

2018 Tom Bourgeois - Murmures {Neuklang NCD4184} [24-96]
Стили:
Место записи:
Bauer Studios Verlag, Ludwigsburg, Germany
Издатель (лейбл):
Номер по каталогу:
NCD4184
Носитель:
WEB
Формат:
PCM
Тип рипа:
tracks
Контейнер:
FLAC (*.flac)
Количество каналов:
2.0
Разрядность/ЧД:
24/96
Битрейт аудио:
lossless
Время звучания:
01:29:41
Наличие сканов:
только обложка
Страна-производитель диска (релиза):
Germany
Релизёр (источник):
M0p94ok
Лог проверки качества
foobar2000 1.3.16 / Dynamic Range Meter 1.1.1
log date: 2019-05-13 19:04:53

--------------------------------------------------------------------------------
Analyzed: Tom Bourgeois feat. Florent Jeunieaux, Thibault Dille & Lois Le Van / Murmures (1-3)
          Tom Bourgeois feat. Thibault Dille, Florent Jeunieaux & Lois Le Van / Murmures (4-15)
--------------------------------------------------------------------------------

DR         Peak         RMS     Duration Track
--------------------------------------------------------------------------------
DR10      -0.73 dB   -12.89 dB      5:50 06-The Old Father and the Polaroid
DR12      -0.74 dB   -15.97 dB      3:09 08-Les Petits Cailloux
DR9       -0.73 dB   -11.72 dB      9:15 13-String Quartet M.35: 3. Très Lent
DR9       -0.73 dB   -12.52 dB      5:36 01-Melancholia
DR9       -0.73 dB   -12.63 dB      7:13 02-Charlie
DR8       -0.73 dB   -11.03 dB      9:01 03-Créatures (Suite)
DR10      -0.74 dB   -12.93 dB      4:10 04-Duke Ellington's Sound of Love
DR11      -0.73 dB   -15.22 dB      5:28 05-Mechanical Boy
DR8       -0.73 dB   -11.66 dB      4:44 07-Jeff (3)
DR10      -0.74 dB   -13.61 dB      4:33 09-Transience
DR9       -0.73 dB   -12.23 dB      5:39 10-Winter
DR10      -0.74 dB   -13.44 dB      6:50 11-String Quartet M.35: 1. Allegro Moderato
DR8       -0.73 dB   -11.99 dB      8:01 12-String Quartet M.35: 2. Assez Vif, Très Rythmé
DR8       -0.73 dB   -11.44 dB      7:46 14-String Quartet M.35: 4. Vif Et Agité
DR9       -0.73 dB   -12.53 dB      2:32 15-Sonatine M.40: 1. Modéré
--------------------------------------------------------------------------------

Number of tracks:  15
Official DR value: DR9

Samplerate:        96000 Hz
Channels:          2
Bits per sample:   24
Bitrate:           2591 kbps
Codec:             FLAC
================================================================================
Any questions - support@pro-jazz.com. Есть вопросы - support@pro-jazz.com
23:55
157
Нет комментариев. Ваш будет первым!