Вы используете незарегистрированную версию компонента "Вкладки"!

Поиск

1981 Stu Goldberg - Piru (aka Variations By Goldberg) (2017) {MPS} [24-88.2]

1981 Stu Goldberg - Piru (aka Variations By Goldberg) (2017) {MPS} [24-88.2]
Стили:
Дата переиздания диска:
9 августа 2017
Издатель (лейбл):
Номер по каталогу:
MPS 0068.262
Носитель:
WEB
Формат:
PCM
Тип рипа:
tracks
Контейнер:
FLAC (*.flac)
Количество каналов:
2.0
Разрядность/ЧД:
24/88,2
Битрейт аудио:
lossless
Время звучания:
00:42:12
Наличие сканов:
только обложка
Страна-производитель диска (релиза):
Germany
Релизёр (источник):
M0p94ok
Доп. инфо:

Released in US in 1981 as "Variations By Goldberg" (Pausa Records ‎– PR 7095)

Лог проверки качества
foobar2000 1.3.16 / Dynamic Range Meter 1.1.1
log date: 2019-04-17 20:00:50

--------------------------------------------------------------------------------
Analyzed: Stu Goldberg / Piru
--------------------------------------------------------------------------------

DR         Peak         RMS     Duration Track
--------------------------------------------------------------------------------
DR13      -1.33 dB   -17.75 dB      6:00 01-Piru
DR13      -0.62 dB   -18.94 dB      5:25 02-The Core of the Apple
DR13      -2.78 dB   -20.44 dB      8:46 03-Baiao
DR15      -1.31 dB   -21.61 dB     13:46 04-Dedication
DR13      -1.66 dB   -18.96 dB      2:36 05-Jazz Hanon 4-8-4
DR13     -11.71 dB   -30.97 dB      1:59 06-Hommage a J.S. Bach
DR12      -1.05 dB   -17.77 dB      3:43 07-Donna Lee
--------------------------------------------------------------------------------

Number of tracks:  7
Official DR value: DR13

Samplerate:        88200 Hz
Channels:          2
Bits per sample:   24
Bitrate:           2505 kbps
Codec:             FLAC
================================================================================
Any questions - support@pro-jazz.com. Есть вопросы - support@pro-jazz.com
11:25
183
Нет комментариев. Ваш будет первым!