Поиск

2003 Stefano Bollani Trio - Falando De Amor (2017) {Venus} [DSD64 ISO]

2003 Stefano Bollani Trio - Falando De Amor (2017) {Venus} [DSD64 ISO]
Дата записи диска:
5 февраля - 6 февраля 2003
Издатель (лейбл):
Номер по каталогу:
VHGD-233
Носитель:
SACD
Формат:
DSD
Тип рипа:
image
Контейнер:
ISO (*.iso)
Количество каналов:
2.0
Разрядность/ЧД:
64 (2,8 MHz/1 Bit)
Битрейт аудио:
lossless
Время звучания:
00:44:44
Наличие сканов:
только обложка

Треклист:

01. Falando De Amor  03:46
02. So Tinha De Ser Com Voce  05:24
03. Angela  04:36
04. Luiza  04:19
05. Retrato Em Branco E Preto  04:23
06. Agua De Beber  05:10
07. Tema Do Amor Por Gabriela  05:35
08. Cancao Do Amor Demais  03:59
09. Aguas De Marco  02:30
10. Pois E  02:53
11. Samba De Uma Nota So  02:49

Состав:
Лог проверки качества
foobar2000 1.6.7 / Dynamic Range Meter 1.1.1
log date: 2021-11-13 16:41:26
--------------------------------------------------------------------------------
Analyzed: STEFANO BOLLANI TRIO / Falando De Amor
--------------------------------------------------------------------------------
DR         Peak         RMS     Duration Track
--------------------------------------------------------------------------------
DR7       -4.58 dB   -13.92 dB      3:42 01-Falando De Amor
DR6       -3.87 dB   -12.78 dB      5:20 02-Só Tinha De Ser Com Voce
DR9       -4.93 dB   -16.72 dB      4:32 03-Angela
DR7       -4.42 dB   -13.83 dB      4:15 04-Luiza
DR8       -5.08 dB   -16.81 dB      4:18 05-Retrato Em Branco E Preto
DR7       -4.27 dB   -14.06 dB      5:06 06-Agua de Beber
DR8       -4.22 dB   -15.20 dB      5:30 07-Tema Do Amor Por Gabriela
DR7       -4.87 dB   -14.45 dB      3:55 08-Cançao Do Amor Demais
DR6       -4.50 dB   -13.15 dB      2:26 09-Aguas De Março
DR7       -4.98 dB   -14.58 dB      2:49 10-Pois É
DR6       -3.91 dB   -12.78 dB      2:50 11-Samba De Uma Nota Só
--------------------------------------------------------------------------------
Number of tracks:  11
Official DR value: DR7
Samplerate:        2822400 Hz / PCM Samplerate: 88200 Hz
Channels:          2
Bits per sample:   1
Bitrate:           5645 kbps
Codec:             DSD64
================================================================================
По всем вопросам пишите личное сообщение пользователю M0p94ok.
13:47
126
Нет комментариев. Ваш будет первым!