Поиск

2000 Kazuo Yashiro - Side by Side, Vol. 1 {Audio Lab} [DSD64 ISO]

2000 Kazuo Yashiro - Side by Side, Vol. 1 {Audio Lab} [DSD64 ISO]
Стили:
Дата записи диска:
20 февраля и 8 марта 1974
Место записи:
Aoyama Tower Hall; Iino Hall
Номер по каталогу:
OVXA-00001
Носитель:
SACD
Формат:
DSD
Тип рипа:
image
Контейнер:
ISO (*.iso)
Количество каналов:
2.0
Разрядность/ЧД:
64 (2,8 MHz/1 Bit)
Битрейт аудио:
lossless
Время звучания:
00:42:29
Наличие сканов:
да

01. Stardust
02. Love Letters
03. The Things I Didn't Do
04. Tea For Two
05. Manhattan
06. Ramona
07. St.Thomas
08. Come Rain Or Come Shine
09. What's New
10. Stella By Starlight

Состав:
  • Kazuo Yashiro (piano)
  • Masanaga Harada (bass)
  • Ikuo Shiozaki (guitar)
  • Taketoshi Igarashi (drums)
Лог проверки качества
foobar2000 1.6.4 / Dynamic Range Meter 1.1.1
log date: 2021-03-20 10:27:46
--------------------------------------------------------------------------
Analyzed: Kazuo Yashiro / Side by Side
--------------------------------------------------------------------------
DR           Peak         RMS     Duration        Track
--------------------------------------------------------------------------
DR12   -8.48 dB   -23.80 dB   3:19   01-Star Dust
DR13   -6.43 dB   -22.81 dB   2:58   02-Love Letters
DR12   -5.95 dB   -22.25 dB   3:03   03-The things I didn´t do
DR11   -4.32 dB   -18.53 dB   3:47   04-Tea for two
DR13   -6.33 dB   -24.03 dB   3:53   05-Manhattan
DR13   -5.99 dB   -22.69 dB   3:03   06-Ramona
DR13   -3.59 dB   -19.91 dB   6:08   07-St. Thomas
DR14   -4.00 dB   -21.37 dB   5:37   08-Come rain or come shine
DR14   -8.98 dB   -28.25 dB   3:40   09-What´s new
DR13   -4.75 dB   -20.67 dB   7:01   10-Stella by starlight
--------------------------------------------------------------------------
Number of tracks: 10
Official DR value: DR13
Samplerate: 2822400 Hz / PCM Samplerate: 88200 Hz
Channels: 2
Bits per sample: 1
Bitrate: 5645 kbps
Codec: DSD64
==============================================
Приватный:
Нет (DHT включён)
Размер:
1.78 Гб (1,915,022,204 байт) » файлов: 11
Участники:
0 раздают, 0 качают (0 участников всего)
Внешние участники:
7 раздают, 2 качают (9 участников всего) [ Обновить ]
19:44
425
Нет комментариев. Ваш будет первым!