Поиск

2003 Quintessence Saxophone Quintet - Quintessence Goes Christmas {CPO 999917}

2003 Quintessence Saxophone Quintet - Quintessence Goes Christmas {CPO 999917}
Стили:
Состав:
  • Unseren Eltern Gewidmet Liner Notes
  • Anatole Gomersall Sax (Tenor)
  • Uli Lettermann Arranger, Sax (Soprano)
  • Andreas Menzel Sax (Tenor)
  • New London Children's Choir Ensemble
  • Holger Schlegel Recording Supervision, Supervising Engineer
  • Burkhard Schmilgun Executive Producer
  • Bernd Stich Sax (Baritone)

Страна-производитель диска (релиза): Germany
Дата записи диска: 19-21 июля 2002
Место записи: Schloss Nordkirchen, Oranienburg, Germany
Дата издания диска: 10 января 2003
Издатель (лейбл): СРО
Номер по каталогу: 999917
Носитель: CD
Битрейт: lossless
Аудиокодек: FLAC (*.flac)
Тип: tracks+.cue
Время звучания: 51:50
Наличие сканов: нет
Релизёр (источник): JanV

Треклист:

01. The Nutcraker Overture (Tschaikowsky) 5:13
02. Hallelujah From »The Messiah« (Handel) 7:14
03. Groove All Ye Faithful (Traditional) 5:31
04. Wachet Auf, Ruft Uns Die Stimme (Bach) 5:00
05. Adagio (Albinoni) 7:05
06. Christmas Dance (Williams) 5:16
07. Jesu, Joy of Mans' Desiring (Bach) 4:23
08. Vom Himmel Hoch (Bach, Luther) 6:09
09. Hark! The Herald Angels Sing (Bartholdy, Mendelssohn) 5:14
10. Christmas in Hollywood (Traditional) 4:00
11. We Wish You a Merry Christmas (Traditional) 3:36

 
Лог создания рипа

Отчёт EAC об извлечении, выполненном 1. ноября 2007, 18:15 для диска:
Quintessence Saxophone Quintet / Quintessence Goes Christmas
Дисковод: TSSTcorpCD/DVDW SH-S182D Adapter: 1 ID: 0
Режим чтения: Достоверный (C2: нет, Точный поток: да, Отключение кэша: да)
Комбинированное смещение чтения/записи: 0
Способность читать области Lead-in и Lead-out : Нет
Выходной формат: Внутренние WAV-операции
44.100 Гц; 16 бит; стерео
Другие параметры:
Заполнение пропущенных сэмплов тишиной : Да
Удаление блоков с тишиной в начале и конце : Нет
Встроенный Win32-интерфейс для Win NT/2000
Трек 1
Имя файла D:\Music\jazz\Q\Quintessence Saxophone Quintet\2003 Quintessence Goes Christmas\01 - The Nutcraker Overture (Tschaikowsky).wav
Пиковый уровень 89.8 %
Качество трека 100.0 %
CRC теста D14AEA12
CRC копии D14AEA12
Копирование... OK
Трек 2
Имя файла D:\Music\jazz\Q\Quintessence Saxophone Quintet\2003 Quintessence Goes Christmas\02 - Hallelujah From »The Messiah« (Handel).wav
Пиковый уровень 98.8 %
Качество трека 100.0 %
CRC теста 8912262F
CRC копии 8912262F
Копирование... OK
Трек 3
Имя файла D:\Music\jazz\Q\Quintessence Saxophone Quintet\2003 Quintessence Goes Christmas\03 - Groove All Ye Faithful (Traditional).wav
Пиковый уровень 90.0 %
Качество трека 100.0 %
CRC теста C26A640B
CRC копии C26A640B
Копирование... OK
Трек 4
Имя файла D:\Music\jazz\Q\Quintessence Saxophone Quintet\2003 Quintessence Goes Christmas\04 - Wachet Auf, Ruft Uns Die Stimme (Bach).wav
Пиковый уровень 81.1 %
Качество трека 99.9 %
CRC теста 763501D3
CRC копии 763501D3
Копирование... OK
Трек 5
Имя файла D:\Music\jazz\Q\Quintessence Saxophone Quintet\2003 Quintessence Goes Christmas\05 - Adagio (Albinoni).wav
Пиковый уровень 84.4 %
Качество трека 99.9 %
CRC теста F2863E75
CRC копии F2863E75
Копирование... OK
Трек 6
Имя файла D:\Music\jazz\Q\Quintessence Saxophone Quintet\2003 Quintessence Goes Christmas\06 - Christmas Dance (Williams).wav
Пиковый уровень 92.2 %
Качество трека 100.0 %
CRC теста D075AF38
CRC копии D075AF38
Копирование... OK
Трек 7
Имя файла D:\Music\jazz\Q\Quintessence Saxophone Quintet\2003 Quintessence Goes Christmas\07 - Jesu, Joy of Mans' Desiring (Bach).wav
Пиковый уровень 80.5 %
Качество трека 100.0 %
CRC теста 98283329
CRC копии 98283329
Копирование... OK
Трек 8
Имя файла D:\Music\jazz\Q\Quintessence Saxophone Quintet\2003 Quintessence Goes Christmas\08 - Vom Himmel Hoch (Bach, Luther).wav
Пиковый уровень 88.1 %
Качество трека 99.9 %
CRC теста 6D1A2711
CRC копии 6D1A2711
Копирование... OK
Трек 9
Имя файла D:\Music\jazz\Q\Quintessence Saxophone Quintet\2003 Quintessence Goes Christmas\09 - Hark, The Herald (Bartholdy, Mendelssohn).wav
Пиковый уровень 76.0 %
Качество трека 100.0 %
CRC теста 68D9BC1D
CRC копии 68D9BC1D
Копирование... OK
Трек 10
Имя файла D:\Music\jazz\Q\Quintessence Saxophone Quintet\2003 Quintessence Goes Christmas\10 - Christmas in Hollywood (Traditional).wav
Пиковый уровень 92.1 %
Качество трека 100.0 %
CRC теста 6B49F6AF
CRC копии 6B49F6AF
Копирование... OK
Трек 11
Имя файла D:\Music\jazz\Q\Quintessence Saxophone Quintet\2003 Quintessence Goes Christmas\11 - We Wish You a Merry Christmas (Traditional).wav
Пиковый уровень 99.6 %
Качество трека 100.0 %
CRC теста 2C0341EE
CRC копии 2C0341EE
Копирование... OK
Ошибок не произошло
Конец отчёта

 
Covers

 

Скачивание доступно после регистрации!!
Приватный:
Нет (DHT включён)
Размер:
268.85 Мб (281,906,830 байт) » файлов: 15
Участники:
9 раздают, 2 качают (11 участников всего)
Внешние участники:
--- [ Обновить ]
13:58
53
RSS
Нет комментариев. Ваш будет первым!