Поиск

2018 Peter Brotzmann & Fred Lonberg-Holm - Ouroboros {Astral Spirits AS043}

2018 Peter Brotzmann & Fred Lonberg-Holm - Ouroboros {Astral Spirits AS043}
Состав:
  • Peter Brötzmann - reeds
  • Fred Lonberg-Holm - strings, electronics

Год издания: 2018
Издатель (лейбл): Astral Spirits
Номер по каталогу: AS043
Страна исполнителя: Germany/USA
Аудиокодек: FLAC (*.flac)
Тип рипа: tracks
Битрейт аудио: lossless
Продолжительность: 40:42
Источник (релизер): WEB
Наличие сканов: front

Треклист:
1. The Circle
2. The Figure Eight
3. The Spiral
4. The Fusion of Opposites

Peter Brotzmann & Fred Lonberg-Holm

 
Лог проверки качества
AUDIOCHECKER v2.0 beta (build 457) - by Dester - opdester@freemail.hu
~~~~~~~~~~~~~~~~~~~~~~~~~~~~~~~~~~
-=== DO NOT EDIT THIS FILE! ===-
Path: ...\Peter Brotzmann & Fred Lonberg-Holm - Ouroboros (2018) [FLAC]
1 -=- 01 - The Circle.flac -=- CDDA (100%)
2 -=- 02 - The Figure Eight.flac -=- CDDA (100%)
3 -=- 03 - The Spiral.flac -=- CDDA (100%)
4 -=- 04 - The Fusion of Opposites.flac -=- CDDA (100%)
Summary 100,00% CDDA
181885156
••••••••••
foobar2000 1.3.12 / Замер динамического диапазона (DR) 1.1.1
Дата отчёта:  2018-05-01 12:11:18
--------------------------------------------------------------------------------
Анализ:   Peter Brotzmann & Fred Lonberg-Holm / Ouroboros
--------------------------------------------------------------------------------
DR         Пики         RMS           Продолжительность трека
--------------------------------------------------------------------------------
DR9        0.00 дБ   -12.70 дБ      6:04 01-The Circle
DR10      -0.66 дБ   -16.18 дБ     13:42 02-The Figure Eight
DR9        0.00 дБ   -11.49 дБ     16:09 03-The Spiral
DR13      -1.57 дБ   -18.93 дБ      4:47 04-The Fusion of Opposites
--------------------------------------------------------------------------------
Количество треков: 4
Реальные значения DR: DR10
Частота:   44100 Гц
Каналов:   2
Разрядность:   16
Битрейт:   629 кбит/с
Кодек:   FLAC
================================================================================

 

Скачивание доступно после регистрации!!
Приватный:
Нет (DHT включён)
Размер:
206.10 Мб (216,108,975 байт) » файлов: 7
Участники:
11 раздают, 1 качают (12 участников всего)
Внешние участники:
--- [ Обновить ]
12:28
60
RSS
Нет комментариев. Ваш будет первым!