Поиск

1987 Kronos Quartet - Music of Bill Evans {Landmark GRP 15102}

1987 Kronos Quartet - Music of Bill Evans {Landmark GRP 15102}
Издатель (лейбл):
Состав:
  • Tom Darter Adaptation, Arranger
  • Hank Dutt Viola
  • Eddie Gomez Bass
  • Jim Hall Guitar
  • David Harrington Violin
  • Joan Jeanrenaud Cello
  • Orrin Keepnews Liner Notes, Producer
  • Danny Kopelson Engineer, Remixing
  • John Sherba Violin

Страна-производитель диска (релиза): USA
Дата записи диска: конец 1985
Место записи: Fantasy Studios, Berkeley, CA
Дата издания диска: 1986
Номер по каталогу: GRP 15102
Носитель: CD
Битрейт аудио: lossless
Аудиокодек: FLAC (*flac)
Тип рипа: tracks+.cue
Время звучания: 41:29
Наличие сканов: да
Релизёр (источник): mrimidalv

Треклист:
01. Waltz For Debby 5:41
02. Very Early 3:59
03. Nardis 5:05
04. Re: Person I Knew 4:25
05. Time Remembered 3:14
06. Walking Up 2:30
07. Turn Out The Stars/Guitar Improvisation 6:32
08. Five 2:39
09. Peace Piece 7:12

 
Лог создания рипа

EAC extraction logfile from 25. September 2007, 12:36 for CD
Kronos Quartet / Music of Bill Evans
Used drive : PLEXTOR DVD-ROM PX-116A2 Adapter: 3 ID: 0
Read mode : Secure with NO C2, accurate stream, disable cache
Read offset correction : 102
Overread into Lead-In and Lead-Out : No
Used output format : Internal WAV Routines
44.100 Hz; 16 Bit; Stereo
Other options :
Fill up missing offset samples with silence : Yes
Delete leading and trailing silent blocks : No
Installed external ASPI interface
Track 1
Filename H:\upload\Kronos Quartet\Music of Bill Evans\01 - Waltz for Debby.wav
Pre-gap length 0:00:02.00
Peak level 54.8 %
Track quality 100.0 %
Test CRC 9F1B4EED
Copy CRC 9F1B4EED
Copy OK
Track 2
Filename H:\upload\Kronos Quartet\Music of Bill Evans\02 - Very early.wav
Peak level 47.7 %
Track quality 100.0 %
Test CRC A4A0C677
Copy CRC A4A0C677
Copy OK
Track 3
Filename H:\upload\Kronos Quartet\Music of Bill Evans\03 - Nardis.wav
Peak level 91.0 %
Track quality 100.0 %
Test CRC 25531753
Copy CRC 25531753
Copy OK
Track 4
Filename H:\upload\Kronos Quartet\Music of Bill Evans\04 - Re- Person I know.wav
Peak level 55.1 %
Track quality 100.0 %
Test CRC 529EFD3B
Copy CRC 529EFD3B
Copy OK
Track 5
Filename H:\upload\Kronos Quartet\Music of Bill Evans\05 - Time remembered.wav
Peak level 68.6 %
Track quality 100.0 %
Test CRC 59621218
Copy CRC 59621218
Copy OK
Track 6
Filename H:\upload\Kronos Quartet\Music of Bill Evans\06 - Walking up.wav
Peak level 61.0 %
Track quality 100.0 %
Test CRC 0933453D
Copy CRC 0933453D
Copy OK
Track 7
Filename H:\upload\Kronos Quartet\Music of Bill Evans\07 - Turn out the stars.wav
Peak level 45.7 %
Track quality 100.0 %
Test CRC B80B81E4
Copy CRC B80B81E4
Copy OK
Track 8
Filename H:\upload\Kronos Quartet\Music of Bill Evans\08 - Five.wav
Peak level 68.7 %
Track quality 100.0 %
Test CRC 9E642888
Copy CRC 9E642888
Copy OK
Track 9
Filename H:\upload\Kronos Quartet\Music of Bill Evans\09 - Peace piece.wav
Peak level 49.1 %
Track quality 100.0 %
Test CRC 701503EE
Copy CRC 701503EE
Copy OK
No errors occured
End of status report

 

Скачивание доступно после регистрации!!
Приватный:
Нет (DHT включён)
Размер:
176.13 Мб (184,680,529 байт) » файлов: 20
Участники:
3 раздают, 1 качают (4 участников всего)
Внешние участники:
3 раздают, 1 качают (4 участников всего) [ Обновить ]
16:09
90
RSS
Нет комментариев. Ваш будет первым!