Поиск

2002 Harumi Nomoto Trio - Another Ordinary Day (2020) {Venus VHGD-358} [DSD64 ISO]

2002 Harumi Nomoto Trio - Another Ordinary Day (2020) {Venus VHGD-358} [DSD64 ISO]
Стили:
Дата записи диска:
23 июня и 1 июля 2002
Место записи:
Take One Studio, Tokyo, Japan
Издатель (лейбл):
Номер по каталогу:
VHGD-358
Носитель:
SACD
Формат:
DSD
Тип рипа:
image
Контейнер:
ISO (*.iso)
Количество каналов:
2.0
Разрядность/ЧД:
64 (2,8 MHz/1 Bit)
Битрейт аудио:
lossless
Время звучания:
00:48:57
Наличие сканов:
только обложка

1. My Shining Hour  04:09
2. Libra Sun  06:12
3. Blues on Saturday  10:30
4. Time Table of Life  04:39
5. Go-Ma  07:11
6. You Only Know What I Know  04:42
7. I Didn't Know What Time It Was  06:52
8. Stardust  04:36

Состав:
  • Bass – Masayuki Tawarayama (треков: Tracks 5, 7), Norihide Shiota (треков: Tracks 1, 2, 3, 4, 8)
  • Drums – Tommy Campbell (треков: Tracks 1, 2, 3, 4, 8), Yoshihito Eto (треков: Tracks 5, 7)
  • Engineer – Yoshiaki Saito
  • Mastered By – Tetsuo Hara, Yoshiaki Saito
  • Mixed By – Tetsuo Hara, Yoshiaki Saito
  • Piano – Harumi Nomoto
  • Producer – Tetsuo Hara
Лог проверки качества
foobar2000 1.6.4 / Dynamic Range Meter 1.1.1
log date: 2021-04-11 21:55:37

--------------------------------------------------------------------------------
Analyzed: Harumi Nomoto Trio / ANOTHER ORDINARY DAY
--------------------------------------------------------------------------------

DR         Peak         RMS     Duration Track
--------------------------------------------------------------------------------
DR7       -5.98 dB   -14.83 dB      4:09 01-My Shining Hour
DR9       -6.01 dB   -17.75 dB      6:12 02-Libra Sun
DR7       -5.98 dB   -15.52 dB     10:30 03-Blues On Saturday
DR8       -5.96 dB   -14.70 dB      4:40 04-Time Table Of Life
DR8       -6.00 dB   -16.42 dB      7:12 05-Go - Ma
DR10      -6.02 dB   -19.39 dB      4:43 06-You Only Know What I Know
DR8       -6.00 dB   -15.31 dB      6:53 07-I Didn't Know What Time It Was
DR9       -6.03 dB   -18.33 dB      4:39 08-Stardust
--------------------------------------------------------------------------------

Number of tracks:  8
Official DR value: DR8

Samplerate:        2822400 Hz / PCM Samplerate: 88200 Hz
Channels:          2
Bits per sample:   1
Bitrate:           5645 kbps
Codec:             DSD64
================================================================================
12:29
617
Нет комментариев. Ваш будет первым!