Поиск

2018 Laura Taglialatela - The Glow {Atlanta} [24-48]

2018 Laura Taglialatela - The Glow {Atlanta} [24-48]
Стили:
Место записи:
Groove Farm Studio, Roma, Italy
Дата издания диска:
6 апреля 2018
Носитель:
WEB
Формат:
PCM
Тип рипа:
tracks
Контейнер:
FLAC (*.flac)
Количество каналов:
2.0
Разрядность/ЧД:
24/48
Битрейт аудио:
lossless
Время звучания:
00:45:22
Наличие сканов:
только обложка

Треклист:

1. The Glow  05:18
2. Take Me Back  04:21
3. Inutil Paisagem  03:27
4. Happiness  04:45
5. Retrato Em Branco E Preto  02:50
6. Silly Girl  05:39
7. Nefertiti  05:49
8. Frantasy  08:23
9. There's That Smile  04:47

Состав:
  • Matteo Bortone    Bass
  • Luca Bulgarelli    Mastering, Mixing
  • Francesco Ciniglio    Composer, Drums
  • Logan Richardson    Sax (Alto)
  • Domenico Sanna    Fender Rhodes, Kalimba, Piano
  • Dayna Stephens    Composer, EWI, Sax (Tenor)
  • Laura Taglialatela    Composer, Producer, Vocals
Лог проверки качества
foobar2000 1.6.2 / Dynamic Range Meter 1.1.1
log date: 2021-12-08 08:40:28

--------------------------------------------------------------------------------
Analyzed: Laura Taglialatela / The Glow
--------------------------------------------------------------------------------

DR         Peak         RMS     Duration Track
--------------------------------------------------------------------------------
DR7        0.00 dB   -11.07 dB      5:18 01-The Glow
DR6        0.00 dB    -8.11 dB      4:21 02-Take Me Back
DR8       -0.10 dB   -10.80 dB      3:27 03-Inutil Paisagem
DR7        0.00 dB   -10.06 dB      4:45 04-Happiness
DR10      -0.14 dB   -12.72 dB      2:51 05-Retrato Em Branco E Preto
DR8        0.00 dB    -9.78 dB      5:40 06-Silly Girl
DR8        0.00 dB   -11.27 dB      5:50 07-Nefertiti
DR6        0.00 dB    -9.27 dB      8:23 08-Frantasy
DR8        0.00 dB   -11.07 dB      4:47 09-There's That Smile
--------------------------------------------------------------------------------

Number of tracks:  9
Official DR value: DR8

Samplerate:        48000 Hz
Channels:          2
Bits per sample:   24
Bitrate:           1513 kbps
Codec:             FLAC
================================================================================
По всем вопросам пишите личное сообщение пользователю M0p94ok.
09:00
237
Нет комментариев. Ваш будет первым!