Поиск

2009 Gianni Basso & Renato Sellani - Body and Soul (2017) {Venus VHGD-227} [DSD64 ISO]

2009 Gianni Basso & Renato Sellani - Body and Soul (2017) {Venus VHGD-227} [DSD64 ISO]
Стили:
Дата записи диска:
24 мая - 25 мая 2008
Место записи:
Fonoprint, Bologna, Italy
Издатель (лейбл):
Номер по каталогу:
VHGD-227
Носитель:
SACD
Формат:
DSD
Тип рипа:
image
Контейнер:
ISO (*.iso)
Количество каналов:
2.0
Разрядность/ЧД:
64 (2,8 MHz/1 Bit)
Битрейт аудио:
lossless
Время звучания:
00:56:28
Наличие сканов:
только обложка

Треклист:

01. Body and Soul  06:17
02. La Mer  03:50
03. Star Dust  04:08
04. Ma L'Amore No  05:41
05. Deep Purple  05:18
06. Pennies from Heaven  05:20
07. My Foolish Heart  04:50
08. I Should Care  04:40
09. Watch What Happens  04:13
10. Miss Bo  04:28
11. Solamente Una Vez  04:50
12. Love You  03:38

Состав:
  • Engineer – Roberto Barillari
  • Engineer [Assistant] – Alessandro Cenciarini
  • Mixed By, Mastered By – Shuji Kitamura, Tetsuo Hara, Venus Hyper Magnum Sound Direct Mix*
  • Piano – Renato Sellani
  • Producer – Tetsuo Hara
  • Tenor Saxophone – Gianni Basso
Лог проверки качества
foobar2000 1.6.4 / Dynamic Range Meter 1.1.1
log date: 2021-07-09 10:39:40

--------------------------------------------------------------------------------
Analyzed: GIANNNI BASSO & RENATO SELLANI / Body And Soul
--------------------------------------------------------------------------------

DR         Peak         RMS     Duration Track
--------------------------------------------------------------------------------
DR8       -4.27 dB   -14.76 dB      6:13 01-Body And Soul
DR8       -3.92 dB   -14.59 dB      3:46 02-La Mer
DR9       -4.17 dB   -15.18 dB      4:04 03-Stardust
DR8       -3.88 dB   -13.64 dB      5:37 04-Ma L'Amore No
DR8       -3.78 dB   -13.97 dB      5:14 05-Deep Purple
DR8       -3.90 dB   -14.33 dB      5:16 06-Pennies From Heaven
DR9       -3.98 dB   -14.57 dB      4:46 07-My Foolish Heart
DR8       -3.57 dB   -14.04 dB      4:36 08-I Should Care
DR8       -3.76 dB   -14.05 dB      4:09 09-Watch What Happens
DR8       -3.98 dB   -14.73 dB      4:24 10-Miss Bo
DR8       -3.73 dB   -13.38 dB      4:46 11-Solamente Una Vez
DR7       -3.66 dB   -13.22 dB      3:39 12-I Love you
--------------------------------------------------------------------------------

Number of tracks:  12
Official DR value: DR8

Samplerate:        2822400 Hz / PCM Samplerate: 88200 Hz
Channels:          2
Bits per sample:   1
Bitrate:           5645 kbps
Codec:             DSD64
================================================================================
По всем вопросам пишите личное сообщение пользователю M0p94ok.
12:24
307
Нет комментариев. Ваш будет первым!