Поиск

2002 Diana Krall - Live In Paris (2021) {Verve} [DSD64 ISO]

2002 Diana Krall - Live In Paris (2021) {Verve} [DSD64 ISO]
Стили:
Дата записи диска:
29 ноября - 2 декабря 2001
Место записи:
Olympia, Paris, France
Дата издания диска:
1 октября 2002
Издатель (лейбл):
Носитель:
SACD
Формат:
DSD
Тип рипа:
image
Контейнер:
ISO (*.iso)
Количество каналов:
2.0
Разрядность/ЧД:
64 (2,8 MHz/1 Bit)
Битрейт аудио:
lossless
Время звучания:
01:10:02
Наличие сканов:
только обложка

Треклист:

01. I Love Being Here with You 5:12
02. Let's Fall in Love 4:34
03. 'Deed I Do 5:18
04. The Look of Love 5:00
05. East of the Sun (And West of the Moon) 5:58
06. I've Got You Under My Skin 7:24
07. Devil May Care 6:52
08. Maybe You'll Be There 5:48
09. 's Wonderful 6:00
10. Fly Me to the Moon 6:06
11. A Case of You 6:50
12. Just the Way You Are 5:00

Состав:
  • Diana Krall – vocals, piano (all tracks);
  • Fender Rhodes (track 12)
  • Anthony Wilson – guitar (tracks 1–10, 12)
  • John Clayton – bass (tracks 1–10, 13)
  • Jeff Hamilton – drums (tracks 1–10, 13)
  • Alan Broadbent – music direction, conducting (tracks 2, 6)
  • Orchestre Symphonique Européen – orchestra (tracks 2, 6)
  • John Pisano – acoustic guitar (tracks 4, 6, 9)
  • Paulinho da Costa – percussion (tracks 4, 6, 7, 9)
  • Michael Brecker – tenor saxophone solo (track 12)
  • Rob Mounsey – additional keyboards (track 12)
  • Christian McBride – bass (track 12)
  • Lewis Nash – drums (track 12)
  • Luis Quintero – percussion (track 12)
  • Ron Escheté – guitar (track 13)
Доп. инфо:

Live in Paris - первый концертный альбом и видеоальбом канадской певицы Дайаны Кралл, выпущенный 1 октября 2002 года компанией Verve Records. Альбом был записан во время аншлагового концерта Кралл в парижской "Олимпии" с 29 ноября по 2 декабря 2001 года и включает песни из ее альбомов Only Trust Your Heart (1995), All for You: A Dedication to the Nat King Cole Trio (1996), When I Look in Your Eyes (1999) и The Look of Love (2001).

Только в США альбом был продан тиражом более 500 000 экземпляров, а видеоклип - более 200 000 экземпляров. В 2003 году альбом получил премию "Грэмми" в номинации "Лучший джазовый вокальный альбом" и премию "Джуно" в номинации "Вокальный джазовый альбом года". Журнал Billboard поставил альбом на восьмое место в списке лучших джазовых альбомов десятилетия.

Лог проверки качества
foobar2000 1.6.7 / Dynamic Range Meter 1.1.1
log date: 2021-12-07 10:31:00
--------------------------------------------------------------------------------
Analyzed: Diana Krall / Live in Paris
--------------------------------------------------------------------------------
DR         Peak         RMS     Duration Track
--------------------------------------------------------------------------------
DR12      -4.91 dB   -19.28 dB      5:12 01-I Love Being Here With You
DR11      -5.93 dB   -19.95 dB      4:34 02-Let's Fall In Love
DR11      -4.97 dB   -18.19 dB      5:18 03-Deed I Do
DR13      -5.98 dB   -22.01 dB      5:00 04-The Look Of Love
DR11      -5.51 dB   -18.98 dB      5:58 05-East Of The Sun (West Of The Moon)
DR12      -5.96 dB   -20.85 dB      7:24 06-I've Got You Under My Skin
DR11      -5.30 dB   -19.75 dB      6:53 07-Devil May Care
DR13      -6.90 dB   -24.10 dB      5:47 08-Maybe You'll Be There
DR12      -5.91 dB   -19.77 dB      6:00 09-'S Wonderful
DR12      -5.33 dB   -19.93 dB      6:06 10-Fly Me To The Moon
DR13      -5.93 dB   -24.20 dB      7:04 11-A Case Of You
DR10      -4.88 dB   -18.23 dB      5:02 12-Just The Way You Are
--------------------------------------------------------------------------------
Number of tracks:  12
Official DR value: DR12
Samplerate:        2822400 Hz / PCM Samplerate: 44100 Hz
Channels:          2
Bits per sample:   1
Bitrate:           5645 kbps
Codec:             DSD64
================================================================================
По всем вопросам пишите личное сообщение пользователю M0p94ok.
18:07
115
Нет комментариев. Ваш будет первым!