Поиск

2012 John Di Martino Romantic Jazz Trio - Lisztomania ~ Liszt Jazz (2018) {Venus} [DSD64 ISO]

2012 John Di Martino Romantic Jazz Trio - Lisztomania ~ Liszt Jazz (2018) {Venus} [DSD64 ISO]
Дата записи диска:
25 марта - 26 марта 2011
Место записи:
Avatar Studios, New York City, NY, USA
Дата издания диска:
16 февраля 2012
Издатель (лейбл):
Номер по каталогу:
VHGD-297
Носитель:
SACD
Формат:
DSD
Тип рипа:
image
Контейнер:
ISO (*.iso)
Количество каналов:
2.0
Разрядность/ЧД:
64 (2,8 MHz/1 Bit)
Битрейт аудио:
lossless
Время звучания:
01:03:08
Наличие сканов:
только обложка

01. The Nobleman’s Journey〜Hungarian Rhapsody No.1
02. Lost Love〜Hungarian Rhapsody No.5
03. Gypsy Fire Song〜Hungarian Rhapsody No.13
04. Dawn Of A New Day〜Funeral ( Intro Theme )
05. Sugar Baby〜Dreams Of Love
06. Forest Spirits〜Forest Murmur
07. Farewell Minuet〜Funeral ( Main Theme )
08. Goulash Blues〜Hungarian Rhapsody No.3
09. Soft Kisses At Midnight〜Hungarian Rhapsody No.9
10. Sea Goddess〜La Campanella
11. Once Before Goodbye〜Consolation No.3
12. Don’t Ask Twice!〜Hungarian Rhapsody No.4
13. An Afternoon In Budapest〜Hungarian Rhapsody No.2
14. Carnival Of Flowers〜Hungarian Rhapsody No.9, 2nd Theme

Состав:
  •     Acoustic Bass – Ed Haward
  •     Drums – Alvin Atkinson
  •     Engineer – Katherine Miller
  •     Mixed By, Mastered By – Venus Hyper Magnum Sound Direct Mix*
  •     Piano – John Di Martino
  •     Producer, Mixed By, Mastered By – Tetsuo Hara
Лог проверки качества
Foobar2000 1.6.8 / Dynamic Range Meter 1.1.1
log date: 2021-12-07 16:52:09
--------------------------------------------------------------------------------
Analyzed: JOHN DI MARTINO ROMANTIC JAZZ TRIO / Lisztomania ~ Liszt Jazz
--------------------------------------------------------------------------------
DR         Peak         RMS     Duration Track
--------------------------------------------------------------------------------
DR6       -4.40 dB   -12.22 dB      4:11 01-The Nobleman's Journey
DR5       -4.22 dB   -12.46 dB      4:40 02-Lost Love
DR6       -4.54 dB   -12.18 dB      4:00 03-Gypsy Fire Song
DR7       -4.19 dB   -12.20 dB      4:28 04-Dawn Of A New Day
DR6       -4.60 dB   -11.92 dB      5:44 05-Sugar Baby
DR6       -4.91 dB   -12.67 dB      5:15 06-Forest Spirits
DR6       -4.81 dB   -13.00 dB      4:17 07-Farewell Minuet
DR6       -4.73 dB   -12.38 dB      3:47 08-Goulash Blues
DR5       -4.57 dB   -12.69 dB      4:39 09-Soft Kisses At Midnight
DR6       -4.53 dB   -12.54 dB      4:08 10-Sea Goddes
DR7       -4.68 dB   -12.87 dB      5:05 11-Once Before Goodbye
DR7       -4.42 dB   -12.74 dB      6:00 12-Don't Ask Twice!
DR6       -4.87 dB   -12.13 dB      5:06 13-An Afternoon In Budapest
DR6       -4.37 dB   -12.59 dB      1:48 14-Carnival Of Flowers
--------------------------------------------------------------------------------
Number of tracks:  14
Official DR value: DR6
Samplerate:        2822400 Hz / PCM Samplerate: 88200 Hz
Channels:          2
Bits per sample:   1
Bitrate:           5645 kbps
Codec:             DSD64
================================================================================
Скачивание доступно после регистрации!!
Приватный:
Нет (DHT включён)
Размер:
2.54 Гб (2,731,642,415 байт) » файлов: 5
Участники:
0 раздают, 0 качают (0 участников всего)
Внешние участники:
--- [ Обновить ]
20:20
446
Нет комментариев. Ваш будет первым!