Поиск

2001 David Hazeltine Trio - Pearls (2018) {Venus VHGD-273} [DSD64 ISO]

2001 David Hazeltine Trio - Pearls (2018) {Venus VHGD-273} [DSD64 ISO]
Дата записи диска:
18 ноября 2000
Место записи:
The Studio, New York City, NY, USA
Дата издания диска:
28 марта 2001
Издатель (лейбл):
Номер по каталогу:
VHGD-273
Носитель:
SACD
Формат:
DSD
Тип рипа:
image
Контейнер:
ISO (*.iso)
Количество каналов:
2.0
Разрядность/ЧД:
64 (2,8 MHz/1 Bit)
Битрейт аудио:
lossless
Время звучания:
00:48:57
Наличие сканов:
да

Треклист:

1. What Kind of Fool Am I  05:39
2. My Old Flame  04:04
3. The Masquerade is Over  08:01
4. His Lordship ( for Cedar Walton)  07:21
5. Somewhere  05:40
6. Darn That Dream  06:08
7. Pearls  05:04
8. Close Enough for Love  06:56

Состав:
  • Todd Barkan    Producer
  • Joe Farnsworth    Drums
  • Tetsuo Hara    Mastering, Mixing, Producer
  • David Hazeltine    Piano
  • Shuji Kitamura    Mastering, Mixing
  • Katherine Miller    Engineer
  • Peter Washington    Bass
Лог проверки качества
foobar2000 1.6.4 / Dynamic Range Meter 1.1.1
log date: 2021-07-08 10:15:02

--------------------------------------------------------------------------------
Analyzed: DAVID HAZELTINE TRIO / Pearls
--------------------------------------------------------------------------------

DR         Peak         RMS     Duration Track
--------------------------------------------------------------------------------
DR9       -4.36 dB   -16.41 dB      5:39 01-What Kind Of Fool Am I
DR9       -4.48 dB   -15.05 dB      4:05 02-My Old Flame
DR12      -4.99 dB   -19.52 dB      8:02 03-The Masquerade Is Over
DR10      -4.39 dB   -16.83 dB      7:22 04-His Lordship ( For Cedar Walton )
DR9       -4.10 dB   -15.75 dB      5:40 05-Somewhere
DR11      -4.95 dB   -18.40 dB      6:09 06-Darn That Dream
DR9       -4.43 dB   -15.17 dB      5:04 07-Pearls
DR10      -5.01 dB   -17.47 dB      6:56 08-Close Enough For Love
--------------------------------------------------------------------------------

Number of tracks:  8
Official DR value: DR10

Samplerate:        2822400 Hz / PCM Samplerate: 88200 Hz
Channels:          2
Bits per sample:   1
Bitrate:           5645 kbps
Codec:             DSD64
================================================================================
По всем вопросам пишите личное сообщение пользователю M0p94ok.
10:00
303
Нет комментариев. Ваш будет первым!