Поиск

2016 Gerald Albright - G {Bright Music} [24-44.1]

2016 Gerald Albright - G {Bright Music} [24-44.1]
Место записи:
Bright ssuic Studios, Castle Rock, CO; CDS Studios, Wallingford, CT
Дата издания диска:
30 сентября 2016
Носитель:
WEB
Формат:
PCM
Тип рипа:
tracks
Контейнер:
FLAC (*.flac)
Количество каналов:
2.0
Разрядность/ЧД:
24/44,1
Битрейт аудио:
lossless
Время звучания:
00:51:57
Наличие сканов:
только обложка
Страна-производитель диска (релиза):
USA

Треклист:

01. Taking Control  04:04
02. Read Your Mind  04:19
03. Boom Boom  04:31
04. Lovely Day feat. Michael McDonald  05:03
05. Frankie B.  05:39
06. Funkism  04:11
07. I Miss You  04:55
08. G and Doug E. feat. Doug E. Fresh  04:58
09. We Came to Play (La Calle)  04:38
10. Closure  04:54
11. We Came to Play (La Calle) (Remix Bonus Track) feat. Rick Watford  04:40

Состав:
  • Gerald Albright    Arranger, Bass, Composer, Engineer, Executive Producer, Guitar (Bass), Producer, Sax (Alto), Sax (Baritone), Sax (Tenor)
  • Selina Albright    Vocal Arrangement
  • Chris Davis    Arranger, Bass, Composer, Drum Programming, Engineer, Keyboards, Producer
  • Doug E. Fresh    Beat Box, Rap, Vocals
  • Michael McDonald    Vocals
  • Don Murray    Mixing
  • Sangwook "Sunny" Nam    Mastering
  • Donnelly Smallwood    Vocal Arrangement, Vocals
  • Rick Watford    Guitar, Vocals
  • Judge Williams    Drums
Лог проверки качества
foobar2000 1.6.2 / Dynamic Range Meter 1.1.1
log date: 2021-12-04 09:07:26

--------------------------------------------------------------------------------
Analyzed: Gerald Albright / G
--------------------------------------------------------------------------------

DR         Peak         RMS     Duration Track
--------------------------------------------------------------------------------
DR6       -0.50 dB    -7.91 dB      4:05 01-Taking Control
DR6       -0.50 dB    -8.04 dB      4:20 02-Read Your Mind
DR7       -0.50 dB    -8.92 dB      4:32 03-Boom Boom
DR5       -0.50 dB    -8.06 dB      5:03 04-Lovely Day
DR6       -0.50 dB    -7.64 dB      5:39 05-Frankie B.
DR7       -0.50 dB    -8.82 dB      4:12 06-Funkism
DR6       -0.50 dB    -8.74 dB      4:56 07-I Miss You
DR7       -0.50 dB    -8.84 dB      4:58 08-G and Doug E.
DR6       -0.50 dB    -8.68 dB      4:38 09-We Came to Play (La Calle)
DR10      -0.50 dB   -12.97 dB      4:54 10-Closure
DR5       -0.50 dB    -8.00 dB      4:41 11-We Came to Play (La Calle) (Remix (Bonus Track))
--------------------------------------------------------------------------------

Number of tracks:  11
Official DR value: DR6

Samplerate:        44100 Hz
Channels:          2
Bits per sample:   24
Bitrate:           1689 kbps
Codec:             FLAC
================================================================================
По всем вопросам пишите личное сообщение пользователю M0p94ok.
09:24
324
Нет комментариев. Ваш будет первым!