Поиск

2006 Francesco Cafiso New York Quartet - New York Lullaby (2016) {Venus} [DSD64 ISO]

2006 Francesco Cafiso New York Quartet - New York Lullaby (2016) {Venus} [DSD64 ISO]
Дата записи диска:
23 июня - 26 июня 2005
Место записи:
The Studio, New York City, NY, USA
Дата издания диска:
29 мая 2006
Издатель (лейбл):
Номер по каталогу:
VHGD-131
Носитель:
SACD
Формат:
DSD
Тип рипа:
image
Контейнер:
ISO (*.iso)
Количество каналов:
2.0
Разрядность/ЧД:
64 (2,8 MHz/1 Bit)
Битрейт аудио:
lossless
Время звучания:
01:11:22
Наличие сканов:
да

Треклист:

1. Lullaby of Birdland  07:57
2. Reflections  04:11
3. Polka Dots and Moonbeams  06:26
4. My Old Flame  09:44
5. Estate  11:38
6. What's New  07:23
7. Imagination  06:32
8. Willow Weep for Me  10:15
9. Speak Low  07:42

Состав:
  • Alto Saxophone – Francesco Cafiso
  • Bass – David Williams
  • Drums – Joe Farnsworth
  • Engineer – Katherine Miller
  • Mixed By, Mastered By – Tetsuo Hara
  • Piano – David Hazeltine
  • Producer – Tetsuo Hara
Лог проверки качества
foobar2000 1.6.4 / Dynamic Range Meter 1.1.1
log date: 2021-07-08 11:33:53

--------------------------------------------------------------------------------
Analyzed: FRANCESCO CAFISO NEW YORK QUARTET / New York Lullaby
--------------------------------------------------------------------------------

DR         Peak         RMS     Duration Track
--------------------------------------------------------------------------------
DR7       -4.77 dB   -13.09 dB      7:53 01-Lullaby Of Birdland
DR10      -4.86 dB   -17.12 dB      4:10 02-Reflections
DR10      -4.88 dB   -18.27 dB      6:22 03-Polka Dots And Moonbeams
DR9       -4.86 dB   -17.27 dB      9:40 04-My Old Flame
DR7       -4.77 dB   -14.97 dB     11:34 05-Esrate
DR10      -4.82 dB   -18.81 dB      7:19 06-What's New
DR10      -4.97 dB   -19.18 dB      6:28 07-Imagination
DR7       -4.79 dB   -15.15 dB     10:11 08-Willow Weep For Me
DR7       -4.63 dB   -13.06 dB      7:42 09-Speak Low
--------------------------------------------------------------------------------

Number of tracks:  9
Official DR value: DR9

Samplerate:        2822400 Hz / PCM Samplerate: 88200 Hz
Channels:          2
Bits per sample:   1
Bitrate:           5645 kbps
Codec:             DSD64
================================================================================
По всем вопросам пишите личное сообщение пользователю M0p94ok.
16:42
294
Нет комментариев. Ваш будет первым!