Поиск

1999 Miles Davis - Love Songs {Legacy/Columbia 65853}

1999 Miles Davis - Love Songs {Legacy/Columbia 65853}
Страна-производитель диска (релиза):
USA
Дата записи диска:
10 мая 1957 - 12 февраля 1964
Дата издания диска:
2 февраля 1999
Издатель (лейбл):
Номер по каталогу:
65853
Носитель:
CD
Битрейт аудио:
lossless
Аудиокодек:
APE (*.ape)
Тип рипа:
tracks+.cue
Время звучания:
60:30
Наличие сканов:
  • да
Релизёр (источник):
East_Wood
Треклист:

1. I Fall In Love Too Easily
2. I Thought About You
3. Summer Night
4. My Ship
5. Some Day My Prince Will Come
6. Stella By Starlight
7. My Funny Valentine
8. Loves You, Porgy (From Porgy & Bess)
9. Old Folks

Состав:

Cannonball Adderley    Sax (Alto)
George Avakian    Producer
Danny Bank    Clarinet (Bass)
Bob Belden    Compilation Producer
Joe Bennett    Trombone
Frank Butler    Drums
Johnny Carisi    Trumpet
Ron Carter    Bass
Paul Chambers    Bass
Jimmy Cleveland    Trombone
Jimmy Cobb    Drums
George Coleman    Sax (Tenor)
John Coltrane    Sax (Tenor)
Sid Cooper    Clarinet, Flute
Miles Davis    Trumpet
Bill Evans    Guest Artist
Gil Evans    Arranger, Conductor
Victor Feldman    Piano
Bernie Glow    Trumpet
Herbie Hancock    Piano
Dick Hixon    Trombone
Taft Jordan    Trumpet
Wynton Kelly    Piano
Lee Konitz    Sax (Alto)
Cal Lampley    Producer
Teo Macero    Producer
Tony Miranda    French Horn
Hank Mobley    Sax (Tenor)
Louis Mucci    Trumpet
Romeo Penque    Clarinet, Clarinet (Bass), Flute, Flute (Alto)
Frank Rehak    Trombone
Jerome Richardson    Clarinet, Flute, Flute (Alto)
Seth Rothstein    Compilation Producer
Ernie Royal    Trumpet
Willie Ruff    French Horn
Gunther Schuller    French Horn
Art Taylor    Drums
Julius Watkins    French Horn
Tony Williams    Guest Artist

Лог создания рипа
Exact Audio Copy V0.99 prebeta 4 from 23. January 2008

Отчёт EAC об извлечении, выполненном 11. января 2009, 22:36

Miles Davis / Love Songs

Дисковод: _NEC DVD_RW ND-7550A Adapter: 1 ID: 0

Режим чтения : Достоверность
Использование точного потока : Да
Отключение кэша аудио : Да
Использование указателей C2 : Нет

Коррекция смещения при чтении : 48
Способность читать области Lead-in и Lead-out : Нет
Заполнение пропущенных сэмплов тишиной : Да
Удаление блоков с тишиной в начале и конце : Нет
При вычислениях CRC использовались нулевые сэмплы : Да
Интерфейс : Встроенный Win32-интерфейс для Win NT/2000
Обработка зазоров : Не обнаружено, добавлено к предыдущему треку

Выходной формат : Внутренние WAV-операции
Формат сэмплов : 44.100 Гц; 16 бит; стерео

TOC извлечённого CD

Трек | Старт | Длительность | Начальный сектор | Конечный сектор
---------------------------------------------------------------------
1 | 0:00.00 | 6:48.72 | 0 | 30671
2 | 6:48.72 | 4:56.25 | 30672 | 52896
3 | 11:45.22 | 6:01.35 | 52897 | 80006
4 | 17:46.57 | 4:34.13 | 80007 | 100569
5 | 22:20.70 | 9:09.40 | 100570 | 141784
6 | 31:30.35 | 4:53.05 | 141785 | 163764
7 | 36:23.40 | 14:58.50 | 163765 | 231164
8 | 51:22.15 | 3:40.15 | 231165 | 247679
9 | 55:02.30 | 5:17.65 | 247680 | 271519

Трек 1

Имя файла C:\Documents and Settings\1\My Documents\Downloads\Love Songs\01 - I Fall In Love Too Easily.wav

Пиковый уровень 100.0 %
Качество трека 100.0 %
CRC копии FEB43930
Точное извлечение (достоверность 4) [A99F9280]
Копирование... OK

Трек 2

Имя файла C:\Documents and Settings\1\My Documents\Downloads\Love Songs\02 - I Thought About You.wav

Пиковый уровень 99.9 %
Качество трека 100.0 %
CRC копии CF6AC1E2
Точное извлечение (достоверность 4) [BB15945A]
Копирование... OK

Трек 3

Имя файла C:\Documents and Settings\1\My Documents\Downloads\Love Songs\03 - Summer Night.wav

Пиковый уровень 100.0 %
Качество трека 100.0 %
CRC копии A4D980D8
Точное извлечение (достоверность 5) [0121389E]
Копирование... OK

Трек 4

Имя файла C:\Documents and Settings\1\My Documents\Downloads\Love Songs\04 - My Ship.wav

Пиковый уровень 100.0 %
Качество трека 100.0 %
CRC копии 8FD33562
Точное извлечение (достоверность 4) [B1D7E586]
Копирование... OK

Трек 5

Имя файла C:\Documents and Settings\1\My Documents\Downloads\Love Songs\05 - Someday My Prince Will Come.wav

Пиковый уровень 99.9 %
Качество трека 100.0 %
CRC копии DE62D880
Точное извлечение (достоверность 4) [04FC2CBC]
Копирование... OK

Трек 6

Имя файла C:\Documents and Settings\1\My Documents\Downloads\Love Songs\06 - Stella By Starlight.wav

Пиковый уровень 100.0 %
Качество трека 100.0 %
CRC копии F7411F6A
Точное извлечение (достоверность 4) [6390D5ED]
Копирование... OK

Трек 7

Имя файла C:\Documents and Settings\1\My Documents\Downloads\Love Songs\07 - My Funny Valentine.wav

Пиковый уровень 100.0 %
Качество трека 99.9 %
CRC копии BF3CE4AB
Точное извлечение (достоверность 4) [F50E0DAE]
Копирование... OK

Трек 8

Имя файла C:\Documents and Settings\1\My Documents\Downloads\Love Songs\08 - I Loves You, Porgy.wav

Пиковый уровень 99.9 %
Качество трека 100.0 %
CRC копии 170A9E39
Точное извлечение (достоверность 4) [252F79A0]
Копирование... OK

Трек 9

Имя файла C:\Documents and Settings\1\My Documents\Downloads\Love Songs\09 - Old Folks.wav

Пиковый уровень 99.9 %
Качество трека 99.9 %
CRC копии A44961E6
Точное извлечение (достоверность 3) [98B312E6]
Копирование... OK

Все треки извлечены точно

Ошибок не произошло

Конец отчёта
Приватный:
Нет (DHT включён)
Размер:
330.05 Мб (346,078,532 байт) » файлов: 13
Участники:
0 раздают, 0 качают (0 участников всего)
Внешние участники:
1 раздают, 0 качают (1 участников всего) [ Обновить ]
03:37
42
RSS
Нет комментариев. Ваш будет первым!