Поиск

1999 Gene Krupa & Harry James - Complete Capitol Recordings of Gene Krupa & Harry James {Mosaic MD7-192} [7CD]

1999 Gene Krupa & Harry James - Complete Capitol Recordings of Gene Krupa & Harry James {Mosaic MD7-192} [7CD]
Стили:
Треклист:
Страна-производитель диска: USA
Год издания: 1999
Издатель (лейбл): Mosaic Records
Номер по каталогу: MD7-192
Страна: USA
Аудиокодек: FLAC (*.flac)
Тип рипа: tracks+.cue
Битрейт аудио: lossless
Продолжительность: 7:55:59
Источник (релизер): what (kumakuma)
Наличие сканов в содержимом раздачи: нет
Треклист:
 
Disc 1
 
 
Треклист
Disc 1 - Gene Krupa
01 Indiana
02 My Old Flame
03 Wings On My Shoes
04 Up And Atom
05 Boogie Blues
06 Hop, Skip And Jump
07 Out Of Nowhere
08 Star Burst (Opening Theme)
09 Star Burst (Closing Theme)
10 Star Burst Theme Bridge 1
11 Star Burst (Theme Bridge 2)
12 Body And Soul
13 Limehouse Blues
14 Stompin' At The Savoy
15 These Foolish Things
16 Calling Dr. Gillespie
17 Begin The Beguine
18 They Didn't Believe Me
19 What's This
20 My Ideal
21 Hodge Podge
 
 
Лог создания рипа
X Lossless Decoder version 20110611 (135.0)
XLD extraction logfile from 2013-01-26 17:39:18 -0800
Gene Krupa / Complete Capitol Krupa & James (1/7)
Used drive : PIONEER DVD-RW  DVR-110D (revision AA06)
Ripper mode             : XLD Secure Ripper
Disable audio cache     : OK for the drive with a cache less than 1375KiB
Make use of C2 pointers : NO
Read offset correction  : 48
Max retry count         : 100
Gap status              : Analyzed, Appended (except HTOA)
TOC of the extracted CD
     Track |   Start  |  Length  | Start sector | End sector
    ---------------------------------------------------------
        1  | 00:00:00 | 02:59:46 |         0    |    13470
        2  | 02:59:46 | 02:18:68 |     13471    |    23888
        3  | 05:18:39 | 03:34:21 |     23889    |    39959
        4  | 08:52:60 | 02:57:54 |     39960    |    53288
        5  | 11:50:39 | 02:49:03 |     53289    |    65966
        6  | 14:39:42 | 04:01:49 |     65967    |    84090
        7  | 18:41:16 | 03:30:14 |     84091    |    99854
        8  | 22:11:30 | 00:29:66 |     99855    |   102095
        9  | 22:41:21 | 01:33:48 |    102096    |   109118
       10  | 24:14:69 | 01:07:32 |    109119    |   114175
       11  | 25:22:26 | 01:26:05 |    114176    |   120630
       12  | 26:48:31 | 04:44:64 |    120631    |   141994
       13  | 31:33:20 | 02:26:56 |    141995    |   153000
       14  | 34:00:01 | 04:11:32 |    153001    |   171857
       15  | 38:11:33 | 03:45:73 |    171858    |   188805
       16  | 41:57:31 | 04:40:66 |    188806    |   209871
       17  | 46:38:22 | 03:17:30 |    209872    |   224676
       18  | 49:55:52 | 03:14:35 |    224677    |   239261
       19  | 53:10:12 | 02:44:15 |    239262    |   251576
       20  | 55:54:27 | 02:38:54 |    251577    |   263480
       21  | 58:33:06 | 03:48:60 |    263481    |   280640
AccurateRip Summary
    Track 01 : OK (confidence 1)
    Track 02 : OK (confidence 1)
    Track 03 : OK (confidence 1)
    Track 04 : OK (confidence 1)
    Track 05 : OK (confidence 1)
    Track 06 : OK (confidence 1)
    Track 07 : OK (confidence 1)
    Track 08 : OK (confidence 1)
    Track 09 : OK (confidence 1)
    Track 10 : OK (confidence 1)
    Track 11 : OK (confidence 1)
    Track 12 : OK (confidence 1)
    Track 13 : OK (confidence 1)
    Track 14 : OK (confidence 1)
    Track 15 : OK (confidence 1)
    Track 16 : OK (confidence 1)
    Track 17 : OK (confidence 1)
    Track 18 : OK (confidence 1)
    Track 19 : OK (confidence 1)
    Track 20 : OK (confidence 1)
    Track 21 : OK (confidence 1)
        ->All tracks accurately ripped.
All Tracks
    Album gain             : -6.37 dB
    Peak                   : 1.000000
    Statistics
        Read error                           : 0
        Jitter error (maybe fixed)           : 0
        Retry sector count                   : 0
        Damaged sector count                 : 0
Track 01
    Filename : /Volumes/Seagate4/Music/Gene Krupa - Complete Capitol Krupa & James (1/7) (1999) [FLAC]/01 Indiana.flac
    Pre-gap length : 00:02:00
    Track gain             : -7.85 dB
    Peak                   : 0.999969
    CRC32 hash (test run)  : 3C540A66
    CRC32 hash             : 3C540A66
    CRC32 hash (skip zero) : 5F7A2FE8
    AccurateRip signature  : 72195310
        ->Accurately ripped! (confidence 1)
    Statistics
        Read error                           : 0
        Jitter error (maybe fixed)           : 0
        Retry sector count                   : 0
        Damaged sector count                 : 0
Track 02
    Filename : /Volumes/Seagate4/Music/Gene Krupa - Complete Capitol Krupa & James (1/7) (1999) [FLAC]/02 My Old Flame.flac
    Track gain             : -7.49 dB
    Peak                   : 1.000000
    CRC32 hash (test run)  : B890E39E
    CRC32 hash             : B890E39E
    CRC32 hash (skip zero) : 1D8B8E23
    AccurateRip signature  : 1B3BA094
        ->Accurately ripped! (confidence 1)
    Statistics
        Read error                           : 0
        Jitter error (maybe fixed)           : 0
        Retry sector count                   : 0
        Damaged sector count                 : 0
Track 03
    Filename : /Volumes/Seagate4/Music/Gene Krupa - Complete Capitol Krupa & James (1/7) (1999) [FLAC]/03 Wings On My Shoes.flac
    Track gain             : -6.53 dB
    Peak                   : 0.948608
    CRC32 hash (test run)  : 5C2B7ABD
    CRC32 hash             : 5C2B7ABD
    CRC32 hash (skip zero) : A3DAF0B6
    AccurateRip signature  : 0BD86C2D
        ->Accurately ripped! (confidence 1)
    Statistics
        Read error                           : 0
        Jitter error (maybe fixed)           : 0
        Retry sector count                   : 0
        Damaged sector count                 : 0
Track 04
    Filename : /Volumes/Seagate4/Music/Gene Krupa - Complete Capitol Krupa & James (1/7) (1999) [FLAC]/04 Up And Atom.flac
    Track gain             : -7.64 dB
    Peak                   : 0.962952
    CRC32 hash (test run)  : 21881D3F
    CRC32 hash             : 21881D3F
    CRC32 hash (skip zero) : 296884D8
    AccurateRip signature  : 9B1E9E25
        ->Accurately ripped! (confidence 1)
    Statistics
        Read error                           : 0
        Jitter error (maybe fixed)           : 0
        Retry sector count                   : 0
        Damaged sector count                 : 0
Track 05
    Filename : /Volumes/Seagate4/Music/Gene Krupa - Complete Capitol Krupa & James (1/7) (1999) [FLAC]/05 Boogie Blues.flac
    Track gain             : -7.82 dB
    Peak                   : 0.962891
    CRC32 hash (test run)  : 4A9B36F5
    CRC32 hash             : 4A9B36F5
    CRC32 hash (skip zero) : 701D3A23
    AccurateRip signature  : BC0B0FD4
        ->Accurately ripped! (confidence 1)
    Statistics
        Read error                           : 0
        Jitter error (maybe fixed)           : 0
        Retry sector count                   : 0
        Damaged sector count                 : 0
Track 06
    Filename : /Volumes/Seagate4/Music/Gene Krupa - Complete Capitol Krupa & James (1/7) (1999) [FLAC]/06 Hop, Skip And Jump.flac
    Track gain             : -6.08 dB
    Peak                   : 0.915741
    CRC32 hash (test run)  : 1D853294
    CRC32 hash             : 1D853294
    CRC32 hash (skip zero) : E43FBCFF
    AccurateRip signature  : 3A6DE8C6
        ->Accurately ripped! (confidence 1)
    Statistics
        Read error                           : 0
        Jitter error (maybe fixed)           : 0
        Retry sector count                   : 0
        Damaged sector count                 : 0
Track 07
    Filename : /Volumes/Seagate4/Music/Gene Krupa - Complete Capitol Krupa & James (1/7) (1999) [FLAC]/07 Out Of Nowhere.flac
    Track gain             : -6.39 dB
    Peak                   : 0.903015
    CRC32 hash (test run)  : 7D63883D
    CRC32 hash             : 7D63883D
    CRC32 hash (skip zero) : 8C75A467
    AccurateRip signature  : F421891C
        ->Accurately ripped! (confidence 1)
    Statistics
        Read error                           : 0
        Jitter error (maybe fixed)           : 0
        Retry sector count                   : 0
        Damaged sector count                 : 0
Track 08
    Filename : /Volumes/Seagate4/Music/Gene Krupa - Complete Capitol Krupa & James (1/7) (1999) [FLAC]/08 Star Burst (Opening Theme).flac
    Track gain             : -8.08 dB
    Peak                   : 0.908569
    CRC32 hash (test run)  : 5AFD88E3
    CRC32 hash             : 5AFD88E3
    CRC32 hash (skip zero) : 58F5416D
    AccurateRip signature  : CB449295
        ->Accurately ripped! (confidence 1)
    Statistics
        Read error                           : 0
        Jitter error (maybe fixed)           : 0
        Retry sector count                   : 0
        Damaged sector count                 : 0
Track 09
    Filename : /Volumes/Seagate4/Music/Gene Krupa - Complete Capitol Krupa & James (1/7) (1999) [FLAC]/09 Star Burst (Closing Theme).flac
    Track gain             : -8.03 dB
    Peak                   : 0.960602
    CRC32 hash (test run)  : C790B260
    CRC32 hash             : C790B260
    CRC32 hash (skip zero) : 6C54AA76
    AccurateRip signature  : 238C9285
        ->Accurately ripped! (confidence 1)
    Statistics
        Read error                           : 0
        Jitter error (maybe fixed)           : 0
        Retry sector count                   : 0
        Damaged sector count                 : 0
Track 10
    Filename : /Volumes/Seagate4/Music/Gene Krupa - Complete Capitol Krupa & James (1/7) (1999) [FLAC]/10 Star Burst Theme Bridge 1.flac
    Track gain             : -3.93 dB
    Peak                   : 0.960571
    CRC32 hash (test run)  : 8177D9E0
    CRC32 hash             : 8177D9E0
    CRC32 hash (skip zero) : 010EA98B
    AccurateRip signature  : 2D2CD682
        ->Accurately ripped! (confidence 1)
    Statistics
        Read error                           : 0
        Jitter error (maybe fixed)           : 0
        Retry sector count                   : 0
        Damaged sector count                 : 0
Track 11
    Filename : /Volumes/Seagate4/Music/Gene Krupa - Complete Capitol Krupa & James (1/7) (1999) [FLAC]/11 Star Burst (Theme Bridge 2).flac
    Track gain             : -3.11 dB
    Peak                   : 0.960175
    CRC32 hash (test run)  : BFD42555
    CRC32 hash             : BFD42555
    CRC32 hash (skip zero) : 07580779
    AccurateRip signature  : 678F36B0
        ->Accurately ripped! (confidence 1)
    Statistics
        Read error                           : 0
        Jitter error (maybe fixed)           : 0
        Retry sector count                   : 0
        Damaged sector count                 : 0
Track 12
    Filename : /Volumes/Seagate4/Music/Gene Krupa - Complete Capitol Krupa & James (1/7) (1999) [FLAC]/12 Body And Soul.flac
    Track gain             : -1.49 dB
    Peak                   : 0.873932
    CRC32 hash (test run)  : AFD76A2D
    CRC32 hash             : AFD76A2D
    CRC32 hash (skip zero) : DF037740
    AccurateRip signature  : 16375544
        ->Accurately ripped! (confidence 1)
    Statistics
        Read error                           : 0
        Jitter error (maybe fixed)           : 0
        Retry sector count                   : 0
        Damaged sector count                 : 0
Track 13
    Filename : /Volumes/Seagate4/Music/Gene Krupa - Complete Capitol Krupa & James (1/7) (1999) [FLAC]/13 Limehouse Blues.flac
    Track gain             : -3.59 dB
    Peak                   : 0.923218
    CRC32 hash (test run)  : 3FB576DD
    CRC32 hash             : 3FB576DD
    CRC32 hash (skip zero) : 98B65E8E
    AccurateRip signature  : 7560C705
        ->Accurately ripped! (confidence 1)
    Statistics
        Read error                           : 0
        Jitter error (maybe fixed)           : 0
        Retry sector count                   : 0
        Damaged sector count                 : 0
Track 14
    Filename : /Volumes/Seagate4/Music/Gene Krupa - Complete Capitol Krupa & James (1/7) (1999) [FLAC]/14 Stompin' At The Savoy.flac
    Track gain             : -2.67 dB
    Peak                   : 0.916962
    CRC32 hash (test run)  : CDC3D721
    CRC32 hash             : CDC3D721
    CRC32 hash (skip zero) : BAECD11B
    AccurateRip signature  : F8AD3E74
        ->Accurately ripped! (confidence 1)
    Statistics
        Read error                           : 0
        Jitter error (maybe fixed)           : 0
        Retry sector count                   : 0
        Damaged sector count                 : 0
Track 15
    Filename : /Volumes/Seagate4/Music/Gene Krupa - Complete Capitol Krupa & James (1/7) (1999) [FLAC]/15 These Foolish Things.flac
    Track gain             : -4.57 dB
    Peak                   : 0.896301
    CRC32 hash (test run)  : 36667610
    CRC32 hash             : 36667610
    CRC32 hash (skip zero) : A1D8B96E
    AccurateRip signature  : 13DD9A54
        ->Accurately ripped! (confidence 1)
    Statistics
        Read error                           : 0
        Jitter error (maybe fixed)           : 0
        Retry sector count                   : 0
        Damaged sector count                 : 0
Track 16
    Filename : /Volumes/Seagate4/Music/Gene Krupa - Complete Capitol Krupa & James (1/7) (1999) [FLAC]/16 Calling Dr. Gillespie.flac
    Track gain             : -5.69 dB
    Peak                   : 0.913727
    CRC32 hash (test run)  : 603BED02
    CRC32 hash             : 603BED02
    CRC32 hash (skip zero) : AA9BC687
    AccurateRip signature  : 775B18E1
        ->Accurately ripped! (confidence 1)
    Statistics
        Read error                           : 0
        Jitter error (maybe fixed)           : 0
        Retry sector count                   : 0
        Damaged sector count                 : 0
Track 17
    Filename : /Volumes/Seagate4/Music/Gene Krupa - Complete Capitol Krupa & James (1/7) (1999) [FLAC]/17 Begin The Beguine.flac
    Track gain             : -6.89 dB
    Peak                   : 1.000000
    CRC32 hash (test run)  : 28B690F7
    CRC32 hash             : 28B690F7
    CRC32 hash (skip zero) : EC513728
    AccurateRip signature  : 75060F5B
        ->Accurately ripped! (confidence 1)
    Statistics
        Read error                           : 0
        Jitter error (maybe fixed)           : 0
        Retry sector count                   : 0
        Damaged sector count                 : 0
Track 18
    Filename : /Volumes/Seagate4/Music/Gene Krupa - Complete Capitol Krupa & James (1/7) (1999) [FLAC]/18 They Didn't Believe Me.flac
    Track gain             : -6.62 dB
    Peak                   : 0.970612
    CRC32 hash (test run)  : AE236684
    CRC32 hash             : AE236684
    CRC32 hash (skip zero) : 657F5067
    AccurateRip signature  : 4383805A
        ->Accurately ripped! (confidence 1)
    Statistics
        Read error                           : 0
        Jitter error (maybe fixed)           : 0
        Retry sector count                   : 0
        Damaged sector count                 : 0
Track 19
    Filename : /Volumes/Seagate4/Music/Gene Krupa - Complete Capitol Krupa & James (1/7) (1999) [FLAC]/19 What's This.flac
    Track gain             : -5.40 dB
    Peak                   : 0.811920
    CRC32 hash (test run)  : 1478AF41
    CRC32 hash             : 1478AF41
    CRC32 hash (skip zero) : CC16DF19
    AccurateRip signature  : D567D13A
        ->Accurately ripped! (confidence 1)
    Statistics
        Read error                           : 0
        Jitter error (maybe fixed)           : 0
        Retry sector count                   : 0
        Damaged sector count                 : 0
Track 20
    Filename : /Volumes/Seagate4/Music/Gene Krupa - Complete Capitol Krupa & James (1/7) (1999) [FLAC]/20 My Ideal.flac
    Track gain             : -4.65 dB
    Peak                   : 0.978333
    CRC32 hash (test run)  : DECEA5BA
    CRC32 hash             : DECEA5BA
    CRC32 hash (skip zero) : C5F09D92
    AccurateRip signature  : C50202AF
        ->Accurately ripped! (confidence 1)
    Statistics
        Read error                           : 0
        Jitter error (maybe fixed)           : 0
        Retry sector count                   : 0
        Damaged sector count                 : 0
Track 21
    Filename : /Volumes/Seagate4/Music/Gene Krupa - Complete Capitol Krupa & James (1/7) (1999) [FLAC]/21 Hodge Podge.flac
    Track gain             : -5.54 dB
    Peak                   : 0.890686
    CRC32 hash (test run)  : A07ED82B
    CRC32 hash             : A07ED82B
    CRC32 hash (skip zero) : A4C652A2
    AccurateRip signature  : 5A34AFE9
        ->Accurately ripped! (confidence 1)
    Statistics
        Read error                           : 0
        Jitter error (maybe fixed)           : 0
        Retry sector count                   : 0
        Damaged sector count                 : 0
No errors occurred
End of status report
 
 
Содержание индексной карты (.CUE)
TITLE "Complete Capitol Krupa & James (1/7)"
PERFORMER "Gene Krupa"
REM GENRE "Jazz"
REM DATE "1999"
REM DISCNUMBER 1
REM TOTALDISCS 7
REM DISCID 0E0E9D15
REM REPLAYGAIN_ALBUM_GAIN -6.37 dB
REM REPLAYGAIN_ALBUM_PEAK 1.000000
FILE "01 Indiana.flac" WAVE
  TRACK 01 AUDIO
    TITLE "Indiana"
    REM REPLAYGAIN_TRACK_GAIN -7.85 dB
    REM REPLAYGAIN_TRACK_PEAK 0.999969
    INDEX 01 00:00:00
FILE "02 My Old Flame.flac" WAVE
  TRACK 02 AUDIO
    TITLE "My Old Flame"
    REM REPLAYGAIN_TRACK_GAIN -7.49 dB
    REM REPLAYGAIN_TRACK_PEAK 1.000000
    INDEX 01 00:00:00
FILE "03 Wings On My Shoes.flac" WAVE
  TRACK 03 AUDIO
    TITLE "Wings On My Shoes"
    REM REPLAYGAIN_TRACK_GAIN -6.53 dB
    REM REPLAYGAIN_TRACK_PEAK 0.948608
    INDEX 01 00:00:00
FILE "04 Up And Atom.flac" WAVE
  TRACK 04 AUDIO
    TITLE "Up And Atom"
    REM REPLAYGAIN_TRACK_GAIN -7.64 dB
    REM REPLAYGAIN_TRACK_PEAK 0.962952
    INDEX 01 00:00:00
FILE "05 Boogie Blues.flac" WAVE
  TRACK 05 AUDIO
    TITLE "Boogie Blues"
    REM REPLAYGAIN_TRACK_GAIN -7.82 dB
    REM REPLAYGAIN_TRACK_PEAK 0.962891
    INDEX 01 00:00:00
FILE "06 Hop, Skip And Jump.flac" WAVE
  TRACK 06 AUDIO
    TITLE "Hop, Skip And Jump"
    REM REPLAYGAIN_TRACK_GAIN -6.08 dB
    REM REPLAYGAIN_TRACK_PEAK 0.915741
    INDEX 01 00:00:00
FILE "07 Out Of Nowhere.flac" WAVE
  TRACK 07 AUDIO
    TITLE "Out Of Nowhere"
    REM REPLAYGAIN_TRACK_GAIN -6.39 dB
    REM REPLAYGAIN_TRACK_PEAK 0.903015
    INDEX 01 00:00:00
FILE "08 Star Burst (Opening Theme).flac" WAVE
  TRACK 08 AUDIO
    TITLE "Star Burst (Opening Theme)"
    REM REPLAYGAIN_TRACK_GAIN -8.08 dB
    REM REPLAYGAIN_TRACK_PEAK 0.908569
    INDEX 01 00:00:00
FILE "09 Star Burst (Closing Theme).flac" WAVE
  TRACK 09 AUDIO
    TITLE "Star Burst (Closing Theme)"
    REM REPLAYGAIN_TRACK_GAIN -8.03 dB
    REM REPLAYGAIN_TRACK_PEAK 0.960602
    INDEX 01 00:00:00
FILE "10 Star Burst Theme Bridge 1.flac" WAVE
  TRACK 10 AUDIO
    TITLE "Star Burst Theme Bridge 1"
    REM REPLAYGAIN_TRACK_GAIN -3.93 dB
    REM REPLAYGAIN_TRACK_PEAK 0.960571
    INDEX 01 00:00:00
FILE "11 Star Burst (Theme Bridge 2).flac" WAVE
  TRACK 11 AUDIO
    TITLE "Star Burst (Theme Bridge 2)"
    REM REPLAYGAIN_TRACK_GAIN -3.11 dB
    REM REPLAYGAIN_TRACK_PEAK 0.960175
    INDEX 01 00:00:00
FILE "12 Body And Soul.flac" WAVE
  TRACK 12 AUDIO
    TITLE "Body And Soul"
    REM REPLAYGAIN_TRACK_GAIN -1.49 dB
    REM REPLAYGAIN_TRACK_PEAK 0.873932
    INDEX 01 00:00:00
FILE "13 Limehouse Blues.flac" WAVE
  TRACK 13 AUDIO
    TITLE "Limehouse Blues"
    REM REPLAYGAIN_TRACK_GAIN -3.59 dB
    REM REPLAYGAIN_TRACK_PEAK 0.923218
    INDEX 01 00:00:00
FILE "14 Stompin' At The Savoy.flac" WAVE
  TRACK 14 AUDIO
    TITLE "Stompin' At The Savoy"
    REM REPLAYGAIN_TRACK_GAIN -2.67 dB
    REM REPLAYGAIN_TRACK_PEAK 0.916962
    INDEX 01 00:00:00
FILE "15 These Foolish Things.flac" WAVE
  TRACK 15 AUDIO
    TITLE "These Foolish Things"
    REM REPLAYGAIN_TRACK_GAIN -4.57 dB
    REM REPLAYGAIN_TRACK_PEAK 0.896301
    INDEX 01 00:00:00
FILE "16 Calling Dr. Gillespie.flac" WAVE
  TRACK 16 AUDIO
    TITLE "Calling Dr. Gillespie"
    REM REPLAYGAIN_TRACK_GAIN -5.69 dB
    REM REPLAYGAIN_TRACK_PEAK 0.913727
    INDEX 01 00:00:00
FILE "17 Begin The Beguine.flac" WAVE
  TRACK 17 AUDIO
    TITLE "Begin The Beguine"
    REM REPLAYGAIN_TRACK_GAIN -6.89 dB
    REM REPLAYGAIN_TRACK_PEAK 1.000000
    INDEX 01 00:00:00
FILE "18 They Didn't Believe Me.flac" WAVE
  TRACK 18 AUDIO
    TITLE "They Didn't Believe Me"
    REM REPLAYGAIN_TRACK_GAIN -6.62 dB
    REM REPLAYGAIN_TRACK_PEAK 0.970612
    INDEX 01 00:00:00
FILE "19 What's This.flac" WAVE
  TRACK 19 AUDIO
    TITLE "What's This"
    REM REPLAYGAIN_TRACK_GAIN -5.40 dB
    REM REPLAYGAIN_TRACK_PEAK 0.811920
    INDEX 01 00:00:00
FILE "20 My Ideal.flac" WAVE
  TRACK 20 AUDIO
    TITLE "My Ideal"
    REM REPLAYGAIN_TRACK_GAIN -4.65 dB
    REM REPLAYGAIN_TRACK_PEAK 0.978333
    INDEX 01 00:00:00
FILE "21 Hodge Podge.flac" WAVE
  TRACK 21 AUDIO
    TITLE "Hodge Podge"
    REM REPLAYGAIN_TRACK_GAIN -5.54 dB
    REM REPLAYGAIN_TRACK_PEAK 0.890686
    INDEX 01 00:00:00[pre]
 
 
Disc 2
 
 
Треклист
Disc 2 - Gene Krupa
01 I'll Never Be The Same
02 Tea For Two
03 Bolero At The Savoy
04 Lover
05 I Hear You Screaming
06 The Man I Love
07 Star Dust
08 10 Ritchie Drive
09 How High The Moon
10 Dark Eyes
11 Some Day Soon
12 And Then I Looked At You
13 King Porter Stomp
14 Blue Lou
15 Summertime
16 How Deep Is The Ocean
17 Up Stepped The Moon
18 Love's In My Heart
19 Leave Us Leap
 
 
Лог создания рипа
X Lossless Decoder version 20110611 (135.0)
XLD extraction logfile from 2013-01-26 18:05:11 -0800
Gene Krupa / Complete Capitol Krupa & James (2/7)
Used drive : PIONEER DVD-RW  DVR-110D (revision AA06)
Ripper mode             : XLD Secure Ripper
Disable audio cache     : OK for the drive with a cache less than 1375KiB
Make use of C2 pointers : NO
Read offset correction  : 48
Max retry count         : 100
Gap status              : Analyzed, Appended (except HTOA)
TOC of the extracted CD
     Track |   Start  |  Length  | Start sector | End sector
    ---------------------------------------------------------
        1  | 00:00:00 | 03:45:07 |         0    |    16881
        2  | 03:45:07 | 02:18:52 |     16882    |    27283
        3  | 06:03:59 | 03:27:48 |     27284    |    42856
        4  | 09:31:32 | 02:53:03 |     42857    |    55834
        5  | 12:24:35 | 02:26:66 |     55835    |    66850
        6  | 14:51:26 | 04:17:46 |     66851    |    86171
        7  | 19:08:72 | 04:35:18 |     86172    |   106814
        8  | 23:44:15 | 03:11:71 |    106815    |   121210
        9  | 26:56:11 | 03:56:19 |    121211    |   138929
       10  | 30:52:30 | 03:50:73 |    138930    |   156252
       11  | 34:43:28 | 02:44:50 |    156253    |   168602
       12  | 37:28:03 | 03:02:64 |    168603    |   182316
       13  | 40:30:67 | 03:04:30 |    182317    |   196146
       14  | 43:35:22 | 03:24:55 |    196147    |   211501
       15  | 47:00:02 | 02:40:10 |    211502    |   223511
       16  | 49:40:12 | 01:57:33 |    223512    |   232319
       17  | 51:37:45 | 02:23:43 |    232320    |   243087
       18  | 54:01:13 | 02:38:40 |    243088    |   254977
       19  | 56:39:53 | 02:05:64 |    254978    |   264416
AccurateRip Summary
    Track 01 : OK (confidence 1)
    Track 02 : OK (confidence 1)
    Track 03 : OK (confidence 1)
    Track 04 : OK (confidence 1)
    Track 05 : OK (confidence 1)
    Track 06 : OK (confidence 1)
    Track 07 : OK (confidence 1)
    Track 08 : OK (confidence 1)
    Track 09 : OK (confidence 1)
    Track 10 : OK (confidence 1)
    Track 11 : OK (confidence 1)
    Track 12 : OK (confidence 1)
    Track 13 : OK (confidence 1)
    Track 14 : OK (confidence 1)
    Track 15 : OK (confidence 1)
    Track 16 : OK (confidence 1)
    Track 17 : OK (confidence 1)
    Track 18 : OK (confidence 1)
    Track 19 : OK (confidence 1)
        ->All tracks accurately ripped.
All Tracks
    Album gain             : -5.33 dB
    Peak                   : 1.000000
    Statistics
        Read error                           : 0
        Jitter error (maybe fixed)           : 0
        Retry sector count                   : 0
        Damaged sector count                 : 0
Track 01
    Filename : /Volumes/Seagate4/Music/Mosaic - Complete Capitol Krupa James/Gene Krupa - Complete Capitol Krupa & James (2/7) (1999) [FLAC]/01 I'll Never Be The Same.flac
    Pre-gap length : 00:02:00
    Track gain             : -5.42 dB
    Peak                   : 0.922546
    CRC32 hash (test run)  : DD4AC5F6
    CRC32 hash             : DD4AC5F6
    CRC32 hash (skip zero) : 6443E15A
    AccurateRip signature  : 1060167D
        ->Accurately ripped! (confidence 1)
    Statistics
        Read error                           : 0
        Jitter error (maybe fixed)           : 0
        Retry sector count                   : 0
        Damaged sector count                 : 0
Track 02
    Filename : /Volumes/Seagate4/Music/Mosaic - Complete Capitol Krupa James/Gene Krupa - Complete Capitol Krupa & James (2/7) (1999) [FLAC]/02 Tea For Two.flac
    Track gain             : -6.72 dB
    Peak                   : 0.997833
    CRC32 hash (test run)  : 2A52F377
    CRC32 hash             : 2A52F377
    CRC32 hash (skip zero) : 3C271997
    AccurateRip signature  : EC3990B2
        ->Accurately ripped! (confidence 1)
    Statistics
        Read error                           : 0
        Jitter error (maybe fixed)           : 0
        Retry sector count                   : 0
        Damaged sector count                 : 0
Track 03
    Filename : /Volumes/Seagate4/Music/Mosaic - Complete Capitol Krupa James/Gene Krupa - Complete Capitol Krupa & James (2/7) (1999) [FLAC]/03 Bolero At The Savoy.flac
    Track gain             : -4.01 dB
    Peak                   : 0.944244
    CRC32 hash (test run)  : 9E88ED74
    CRC32 hash             : 9E88ED74
    CRC32 hash (skip zero) : BC2CC1E4
    AccurateRip signature  : 51B08575
        ->Accurately ripped! (confidence 1)
    Statistics
        Read error                           : 0
        Jitter error (maybe fixed)           : 0
        Retry sector count                   : 0
        Damaged sector count                 : 0
Track 04
    Filename : /Volumes/Seagate4/Music/Mosaic - Complete Capitol Krupa James/Gene Krupa - Complete Capitol Krupa & James (2/7) (1999) [FLAC]/04 Lover.flac
    Track gain             : -5.16 dB
    Peak                   : 0.999969
    CRC32 hash (test run)  : EE967536
    CRC32 hash             : EE967536
    CRC32 hash (skip zero) : FFDCD763
    AccurateRip signature  : 55EBDA02
        ->Accurately ripped! (confidence 1)
    Statistics
        Read error                           : 0
        Jitter error (maybe fixed)           : 0
        Retry sector count                   : 0
        Damaged sector count                 : 0
Track 05
    Filename : /Volumes/Seagate4/Music/Mosaic - Complete Capitol Krupa James/Gene Krupa - Complete Capitol Krupa & James (2/7) (1999) [FLAC]/05 I Hear You Screaming.flac
    Track gain             : -5.04 dB
    Peak                   : 0.891205
    CRC32 hash (test run)  : 14CB719A
    CRC32 hash             : 14CB719A
    CRC32 hash (skip zero) : 7BE20E76
    AccurateRip signature  : 333B6E55
        ->Accurately ripped! (confidence 1)
    Statistics
        Read error                           : 0
        Jitter error (maybe fixed)           : 0
        Retry sector count                   : 0
        Damaged sector count                 : 0
Track 06
    Filename : /Volumes/Seagate4/Music/Mosaic - Complete Capitol Krupa James/Gene Krupa - Complete Capitol Krupa & James (2/7) (1999) [FLAC]/06 The Man I Love.flac
    Track gain             : -5.26 dB
    Peak                   : 0.975555
    CRC32 hash (test run)  : 05C55B0C
    CRC32 hash             : 05C55B0C
    CRC32 hash (skip zero) : 880C415D
    AccurateRip signature  : 8A63E4C4
        ->Accurately ripped! (confidence 1)
    Statistics
        Read error                           : 0
        Jitter error (maybe fixed)           : 0
        Retry sector count                   : 0
        Damaged sector count                 : 0
Track 07
    Filename : /Volumes/Seagate4/Music/Mosaic - Complete Capitol Krupa James/Gene Krupa - Complete Capitol Krupa & James (2/7) (1999) [FLAC]/07 Star Dust.flac
    Track gain             : -5.95 dB
    Peak                   : 0.948303
    CRC32 hash (test run)  : BF0B8F52
    CRC32 hash             : BF0B8F52
    CRC32 hash (skip zero) : BF645499
    AccurateRip signature  : 191B06C2
        ->Accurately ripped! (confidence 1)
    Statistics
        Read error                           : 0
        Jitter error (maybe fixed)           : 0
        Retry sector count                   : 0
        Damaged sector count                 : 0
Track 08
    Filename : /Volumes/Seagate4/Music/Mosaic - Complete Capitol Krupa James/Gene Krupa - Complete Capitol Krupa & James (2/7) (1999) [FLAC]/08 10 Ritchie Drive.flac
    Track gain             : -4.98 dB
    Peak                   : 0.931885
    CRC32 hash (test run)  : 7C6618ED
    CRC32 hash             : 7C6618ED
    CRC32 hash (skip zero) : 0DCADD1B
    AccurateRip signature  : B22593D9
        ->Accurately ripped! (confidence 1)
    Statistics
        Read error                           : 0
        Jitter error (maybe fixed)           : 0
        Retry sector count                   : 0
        Damaged sector count                 : 0
Track 09
    Filename : /Volumes/Seagate4/Music/Mosaic - Complete Capitol Krupa James/Gene Krupa - Complete Capitol Krupa & James (2/7) (1999) [FLAC]/09 How High The Moon.flac
    Track gain             : -4.14 dB
    Peak                   : 0.989807
    CRC32 hash (test run)  : 433CE0DF
    CRC32 hash             : 433CE0DF
    CRC32 hash (skip zero) : 8F1B939C
    AccurateRip signature  : 4C60432B
        ->Accurately ripped! (confidence 1)
    Statistics
        Read error                           : 0
        Jitter error (maybe fixed)           : 0
        Retry sector count                   : 0
        Damaged sector count                 : 0
Track 10
    Filename : /Volumes/Seagate4/Music/Mosaic - Complete Capitol Krupa James/Gene Krupa - Complete Capitol Krupa & James (2/7) (1999) [FLAC]/10 Dark Eyes.flac
    Track gain             : -1.92 dB
    Peak                   : 0.891663
    CRC32 hash (test run)  : 76704C3B
    CRC32 hash             : 76704C3B
    CRC32 hash (skip zero) : EB68FAE5
    AccurateRip signature  : 4DAEF400
        ->Accurately ripped! (confidence 1)
    Statistics
        Read error                           : 0
        Jitter error (maybe fixed)           : 0
        Retry sector count                   : 0
        Damaged sector count                 : 0
Track 11
    Filename : /Volumes/Seagate4/Music/Mosaic - Complete Capitol Krupa James/Gene Krupa - Complete Capitol Krupa & James (2/7) (1999) [FLAC]/11 Some Day Soon.flac
    Track gain             : -5.66 dB
    Peak                   : 0.960052
    CRC32 hash (test run)  : EE74B307
    CRC32 hash             : EE74B307
    CRC32 hash (skip zero) : 0C3C7471
    AccurateRip signature  : CB7908C7
        ->Accurately ripped! (confidence 1)
    Statistics
        Read error                           : 0
        Jitter error (maybe fixed)           : 0
        Retry sector count                   : 0
        Damaged sector count                 : 0
Track 12
    Filename : /Volumes/Seagate4/Music/Mosaic - Complete Capitol Krupa James/Gene Krupa - Complete Capitol Krupa & James (2/7) (1999) [FLAC]/12 And Then I Looked At You.flac
    Track gain             : -6.20 dB
    Peak                   : 0.877350
    CRC32 hash (test run)  : 4F4D96C3
    CRC32 hash             : 4F4D96C3
    CRC32 hash (skip zero) : 680AD88A
    AccurateRip signature  : 4F0FA5EB
        ->Accurately ripped! (confidence 1)
    Statistics
        Read error                           : 0
        Jitter error (maybe fixed)           : 0
        Retry sector count                   : 0
        Damaged sector count                 : 0
Track 13
    Filename : /Volumes/Seagate4/Music/Mosaic - Complete Capitol Krupa James/Gene Krupa - Complete Capitol Krupa & James (2/7) (1999) [FLAC]/13 King Porter Stomp.flac
    Track gain             : -6.13 dB
    Peak                   : 0.997009
    CRC32 hash (test run)  : B3B622BA
    CRC32 hash             : B3B622BA
    CRC32 hash (skip zero) : 8835212E
    AccurateRip signature  : 3FB13AED
        ->Accurately ripped! (confidence 1)
    Statistics
        Read error                           : 0
        Jitter error (maybe fixed)           : 0
        Retry sector count                   : 0
        Damaged sector count                 : 0
Track 14
    Filename : /Volumes/Seagate4/Music/Mosaic - Complete Capitol Krupa James/Gene Krupa - Complete Capitol Krupa & James (2/7) (1999) [FLAC]/14 Blue Lou.flac
    Track gain             : -5.74 dB
    Peak                   : 0.943970
    CRC32 hash (test run)  : F5886E60
    CRC32 hash             : F5886E60
    CRC32 hash (skip zero) : 47E23E50
    AccurateRip signature  : B3F29C99
        ->Accurately ripped! (confidence 1)
    Statistics
        Read error                           : 0
        Jitter error (maybe fixed)           : 0
        Retry sector count                   : 0
        Damaged sector count                 : 0
Track 15
    Filename : /Volumes/Seagate4/Music/Mosaic - Complete Capitol Krupa James/Gene Krupa - Complete Capitol Krupa & James (2/7) (1999) [FLAC]/15 Summertime.flac
    Track gain             : -3.12 dB
    Peak                   : 0.836578
    CRC32 hash (test run)  : 6FE6A901
    CRC32 hash             : 6FE6A901
    CRC32 hash (skip zero) : 37297870
    AccurateRip signature  : 909EEE60
        ->Accurately ripped! (confidence 1)
    Statistics
        Read error                           : 0
        Jitter error (maybe fixed)           : 0
        Retry sector count                   : 0
        Damaged sector count                 : 0
Track 16
    Filename : /Volumes/Seagate4/Music/Mosaic - Complete Capitol Krupa James/Gene Krupa - Complete Capitol Krupa & James (2/7) (1999) [FLAC]/16 How Deep Is The Ocean.flac
    Track gain             : -4.43 dB
    Peak                   : 1.000000
    CRC32 hash (test run)  : 7A656350
    CRC32 hash             : 7A656350
    CRC32 hash (skip zero) : 0789E8BF
    AccurateRip signature  : C364FD4C
        ->Accurately ripped! (confidence 1)
    Statistics
        Read error                           : 0
        Jitter error (maybe fixed)           : 0
        Retry sector count                   : 0
        Damaged sector count                 : 0
Track 17
    Filename : /Volumes/Seagate4/Music/Mosaic - Complete Capitol Krupa James/Gene Krupa - Complete Capitol Krupa & James (2/7) (1999) [FLAC]/17 Up Stepped The Moon.flac
    Track gain             : -3.46 dB
    Peak                   : 0.915131
    CRC32 hash (test run)  : 2E1EC9F7
    CRC32 hash             : 2E1EC9F7
    CRC32 hash (skip zero) : 9A18459C
    AccurateRip signature  : 8367CC25
        ->Accurately ripped! (confidence 1)
    Statistics
        Read error                           : 0
        Jitter error (maybe fixed)           : 0
        Retry sector count                   : 0
        Damaged sector count                 : 0
Track 18
    Filename : /Volumes/Seagate4/Music/Mosaic - Complete Capitol Krupa James/Gene Krupa - Complete Capitol Krupa & James (2/7) (1999) [FLAC]/18 Love's In My Heart.flac
    Track gain             : -3.20 dB
    Peak                   : 0.968628
    CRC32 hash (test run)  : 1D973519
    CRC32 hash             : 1D973519
    CRC32 hash (skip zero) : EA8E46C0
    AccurateRip signature  : AF80F57B
        ->Accurately ripped! (confidence 1)
    Statistics
        Read error                           : 0
        Jitter error (maybe fixed)           : 0
        Retry sector count                   : 0
        Damaged sector count                 : 0
Track 19
    Filename : /Volumes/Seagate4/Music/Mosaic - Complete Capitol Krupa James/Gene Krupa - Complete Capitol Krupa & James (2/7) (1999) [FLAC]/19 Leave Us Leap.flac
    Track gain             : -6.09 dB
    Peak                   : 0.999969
    CRC32 hash (test run)  : C28D4F5B
    CRC32 hash             : C28D4F5B
    CRC32 hash (skip zero) : 1A5BDCE9
    AccurateRip signature  : 7A9C2532
        ->Accurately ripped! (confidence 1)
    Statistics
        Read error                           : 0
        Jitter error (maybe fixed)           : 0
        Retry sector count                   : 0
        Damaged sector count                 : 0
No errors occurred
End of status report
 
 
Содержание индексной карты (.CUE)
TITLE "Complete Capitol Krupa & James (2/7)"
PERFORMER "Gene Krupa"
REM GENRE "Jazz"
REM DATE "1999"
REM DISCNUMBER 2
REM TOTALDISCS 7
REM DISCID 050DC513
REM REPLAYGAIN_ALBUM_GAIN -5.33 dB
REM REPLAYGAIN_ALBUM_PEAK 1.000000
FILE "01 I'll Never Be The Same.flac" WAVE
  TRACK 01 AUDIO
    TITLE "I'll Never Be The Same"
    REM REPLAYGAIN_TRACK_GAIN -5.42 dB
    REM REPLAYGAIN_TRACK_PEAK 0.922546
    INDEX 01 00:00:00
FILE "02 Tea For Two.flac" WAVE
  TRACK 02 AUDIO
    TITLE "Tea For Two"
    REM REPLAYGAIN_TRACK_GAIN -6.72 dB
    REM REPLAYGAIN_TRACK_PEAK 0.997833
    INDEX 01 00:00:00
FILE "03 Bolero At The Savoy.flac" WAVE
  TRACK 03 AUDIO
    TITLE "Bolero At The Savoy"
    REM REPLAYGAIN_TRACK_GAIN -4.01 dB
    REM REPLAYGAIN_TRACK_PEAK 0.944244
    INDEX 01 00:00:00
FILE "04 Lover.flac" WAVE
  TRACK 04 AUDIO
    TITLE "Lover"
    REM REPLAYGAIN_TRACK_GAIN -5.16 dB
    REM REPLAYGAIN_TRACK_PEAK 0.999969
    INDEX 01 00:00:00
FILE "05 I Hear You Screaming.flac" WAVE
  TRACK 05 AUDIO
    TITLE "I Hear You Screaming"
    REM REPLAYGAIN_TRACK_GAIN -5.04 dB
    REM REPLAYGAIN_TRACK_PEAK 0.891205
    INDEX 01 00:00:00
FILE "06 The Man I Love.flac" WAVE
  TRACK 06 AUDIO
    TITLE "The Man I Love"
    REM REPLAYGAIN_TRACK_GAIN -5.26 dB
    REM REPLAYGAIN_TRACK_PEAK 0.975555
    INDEX 01 00:00:00
FILE "07 Star Dust.flac" WAVE
  TRACK 07 AUDIO
    TITLE "Star Dust"
    REM REPLAYGAIN_TRACK_GAIN -5.95 dB
    REM REPLAYGAIN_TRACK_PEAK 0.948303
    INDEX 01 00:00:00
FILE "08 10 Ritchie Drive.flac" WAVE
  TRACK 08 AUDIO
    TITLE "10 Ritchie Drive"
    REM REPLAYGAIN_TRACK_GAIN -4.98 dB
    REM REPLAYGAIN_TRACK_PEAK 0.931885
    INDEX 01 00:00:00
FILE "09 How High The Moon.flac" WAVE
  TRACK 09 AUDIO
    TITLE "How High The Moon"
    REM REPLAYGAIN_TRACK_GAIN -4.14 dB
    REM REPLAYGAIN_TRACK_PEAK 0.989807
    INDEX 01 00:00:00
FILE "10 Dark Eyes.flac" WAVE
  TRACK 10 AUDIO
    TITLE "Dark Eyes"
    REM REPLAYGAIN_TRACK_GAIN -1.92 dB
    REM REPLAYGAIN_TRACK_PEAK 0.891663
    INDEX 01 00:00:00
FILE "11 Some Day Soon.flac" WAVE
  TRACK 11 AUDIO
    TITLE "Some Day Soon"
    REM REPLAYGAIN_TRACK_GAIN -5.66 dB
    REM REPLAYGAIN_TRACK_PEAK 0.960052
    INDEX 01 00:00:00
FILE "12 And Then I Looked At You.flac" WAVE
  TRACK 12 AUDIO
    TITLE "And Then I Looked At You"
    REM REPLAYGAIN_TRACK_GAIN -6.20 dB
    REM REPLAYGAIN_TRACK_PEAK 0.877350
    INDEX 01 00:00:00
FILE "13 King Porter Stomp.flac" WAVE
  TRACK 13 AUDIO
    TITLE "King Porter Stomp"
    REM REPLAYGAIN_TRACK_GAIN -6.13 dB
    REM REPLAYGAIN_TRACK_PEAK 0.997009
    INDEX 01 00:00:00
FILE "14 Blue Lou.flac" WAVE
  TRACK 14 AUDIO
    TITLE "Blue Lou"
    REM REPLAYGAIN_TRACK_GAIN -5.74 dB
    REM REPLAYGAIN_TRACK_PEAK 0.943970
    INDEX 01 00:00:00
FILE "15 Summertime.flac" WAVE
  TRACK 15 AUDIO
    TITLE "Summertime"
    REM REPLAYGAIN_TRACK_GAIN -3.12 dB
    REM REPLAYGAIN_TRACK_PEAK 0.836578
    INDEX 01 00:00:00
FILE "16 How Deep Is The Ocean.flac" WAVE
  TRACK 16 AUDIO
    TITLE "How Deep Is The Ocean"
    REM REPLAYGAIN_TRACK_GAIN -4.43 dB
    REM REPLAYGAIN_TRACK_PEAK 1.000000
    INDEX 01 00:00:00
FILE "17 Up Stepped The Moon.flac" WAVE
  TRACK 17 AUDIO
    TITLE "Up Stepped The Moon"
    REM REPLAYGAIN_TRACK_GAIN -3.46 dB
    REM REPLAYGAIN_TRACK_PEAK 0.915131
    INDEX 01 00:00:00
FILE "18 Love's In My Heart.flac" WAVE
  TRACK 18 AUDIO
    TITLE "Love's In My Heart"
    REM REPLAYGAIN_TRACK_GAIN -3.20 dB
    REM REPLAYGAIN_TRACK_PEAK 0.968628
    INDEX 01 00:00:00
FILE "19 Leave Us Leap.flac" WAVE
  TRACK 19 AUDIO
    TITLE "Leave Us Leap"
    REM REPLAYGAIN_TRACK_GAIN -6.09 dB
    REM REPLAYGAIN_TRACK_PEAK 0.999969
    INDEX 01 00:00:00[pre]
 
 
Disc 3
 
 
Треклист
Disc 3 - Gene Krupa
01 Yesterdays
02 Baby, Won't You Please Come Home
03 Prisoner Of Love
04 U.S.O.
05 John's Other Wife
06 Ain't Nowhere
07 Otto, Make The Riff Staccato
08 Sweet Lorraine
09 Wire Brush Stomp
10 Old Folks At Home
11 You Go To My Head
12 Bird House
13 Lyonaise Potatoes And Some Pork Chops
14 Bugle Call Rag
15 In The Moon Mist
16 Where Or When
17 It's Up To You
18 What Is This Thing Called Love
19 Idaho
 
 
Лог создания рипа
X Lossless Decoder version 20110611 (135.0)
XLD extraction logfile from 2013-01-26 18:27:13 -0800
Gene Krupa / Complete Capitol Krupa & James (3/7)
Used drive : PIONEER DVD-RW  DVR-110D (revision AA06)
Ripper mode             : XLD Secure Ripper
Disable audio cache     : OK for the drive with a cache less than 1375KiB
Make use of C2 pointers : NO
Read offset correction  : 48
Max retry count         : 100
Gap status              : Analyzed, Appended (except HTOA)
TOC of the extracted CD
     Track |   Start  |  Length  | Start sector | End sector
    ---------------------------------------------------------
        1  | 00:00:00 | 03:53:04 |         0    |    17478
        2  | 03:53:04 | 02:40:10 |     17479    |    29488
        3  | 06:33:14 | 02:18:11 |     29489    |    39849
        4  | 08:51:25 | 03:08:26 |     39850    |    53975
        5  | 11:59:51 | 04:16:56 |     53976    |    73231
        6  | 16:16:32 | 04:00:03 |     73232    |    91234
        7  | 20:16:35 | 03:40:64 |     91235    |   107798
        8  | 23:57:24 | 04:02:74 |    107799    |   126022
        9  | 28:00:23 | 02:10:73 |    126023    |   135845
       10  | 30:11:21 | 02:44:74 |    135846    |   148219
       11  | 32:56:20 | 02:54:04 |    148220    |   161273
       12  | 35:50:24 | 03:23:32 |    161274    |   176530
       13  | 39:13:56 | 03:27:27 |    176531    |   192082
       14  | 42:41:08 | 03:18:32 |    192083    |   206964
       15  | 45:59:40 | 03:42:65 |    206965    |   223679
       16  | 49:42:30 | 02:08:24 |    223680    |   233303
       17  | 51:50:54 | 02:45:21 |    233304    |   245699
       18  | 54:36:00 | 02:55:00 |    245700    |   258824
       19  | 57:31:00 | 02:33:73 |    258825    |   270372
AccurateRip Summary
    Track 01 : OK (confidence 1)
    Track 02 : OK (confidence 1)
    Track 03 : OK (confidence 1)
    Track 04 : OK (confidence 1)
    Track 05 : OK (confidence 1)
    Track 06 : OK (confidence 1)
    Track 07 : OK (confidence 1)
    Track 08 : OK (confidence 1)
    Track 09 : OK (confidence 1)
    Track 10 : OK (confidence 1)
    Track 11 : OK (confidence 1)
    Track 12 : OK (confidence 1)
    Track 13 : OK (confidence 1)
    Track 14 : OK (confidence 1)
    Track 15 : OK (confidence 1)
    Track 16 : OK (confidence 1)
    Track 17 : OK (confidence 1)
    Track 18 : OK (confidence 1)
    Track 19 : OK (confidence 1)
        ->All tracks accurately ripped.
All Tracks
    Album gain             : -5.65 dB
    Peak                   : 0.999969
    Statistics
        Read error                           : 0
        Jitter error (maybe fixed)           : 0
        Retry sector count                   : 0
        Damaged sector count                 : 0
Track 01
    Filename : /Volumes/Seagate4/Music/Mosaic - Complete Capitol Krupa James/Compilations - Complete Capitol Krupa & James (3/7) (1999) [FLAC]/01 Yesterdays.flac
    Pre-gap length : 00:02:00
    Track gain             : -5.98 dB
    Peak                   : 0.955109
    CRC32 hash (test run)  : 52F460D1
    CRC32 hash             : 52F460D1
    CRC32 hash (skip zero) : EDC8B646
    AccurateRip signature  : 51C517B4
        ->Accurately ripped! (confidence 1)
    Statistics
        Read error                           : 0
        Jitter error (maybe fixed)           : 0
        Retry sector count                   : 0
        Damaged sector count                 : 0
Track 02
    Filename : /Volumes/Seagate4/Music/Mosaic - Complete Capitol Krupa James/Compilations - Complete Capitol Krupa & James (3/7) (1999) [FLAC]/02 Baby, Won't You Please Come Home.flac
    Track gain             : -5.09 dB
    Peak                   : 0.852905
    CRC32 hash (test run)  : DB6BB6DD
    CRC32 hash             : DB6BB6DD
    CRC32 hash (skip zero) : A15F72BD
    AccurateRip signature  : E1672BE1
        ->Accurately ripped! (confidence 1)
    Statistics
        Read error                           : 0
        Jitter error (maybe fixed)           : 0
        Retry sector count                   : 0
        Damaged sector count                 : 0
Track 03
    Filename : /Volumes/Seagate4/Music/Mosaic - Complete Capitol Krupa James/Compilations - Complete Capitol Krupa & James (3/7) (1999) [FLAC]/03 Prisoner Of Love.flac
    Track gain             : -6.98 dB
    Peak                   : 0.880493
    CRC32 hash (test run)  : 307BA7C2
    CRC32 hash             : 307BA7C2
    CRC32 hash (skip zero) : 046740E6
    AccurateRip signature  : B0BD6B9D
        ->Accurately ripped! (confidence 1)
    Statistics
        Read error                           : 0
        Jitter error (maybe fixed)           : 0
        Retry sector count                   : 0
        Damaged sector count                 : 0
Track 04
    Filename : /Volumes/Seagate4/Music/Mosaic - Complete Capitol Krupa James/Compilations - Complete Capitol Krupa & James (3/7) (1999) [FLAC]/04 U.S.O..flac
    Track gain             : -6.00 dB
    Peak                   : 0.998596
    CRC32 hash (test run)  : 829580FA
    CRC32 hash             : 829580FA
    CRC32 hash (skip zero) : 383A63A6
    AccurateRip signature  : 70B4BE27
        ->Accurately ripped! (confidence 1)
    Statistics
        Read error                           : 0
        Jitter error (maybe fixed)           : 0
        Retry sector count                   : 0
        Damaged sector count                 : 0
Track 05
    Filename : /Volumes/Seagate4/Music/Mosaic - Complete Capitol Krupa James/Compilations - Complete Capitol Krupa & James (3/7) (1999) [FLAC]/05 John's Other Wife.flac
    Track gain             : -6.62 dB
    Peak                   : 0.947571
    CRC32 hash (test run)  : 03777974
    CRC32 hash             : 03777974
    CRC32 hash (skip zero) : 94744B67
    AccurateRip signature  : DCEA761A
        ->Accurately ripped! (confidence 1)
    Statistics
        Read error                           : 0
        Jitter error (maybe fixed)           : 0
        Retry sector count                   : 0
        Damaged sector count                 : 0
Track 06
    Filename : /Volumes/Seagate4/Music/Mosaic - Complete Capitol Krupa James/Compilations - Complete Capitol Krupa & James (3/7) (1999) [FLAC]/06 Ain't Nowhere.flac
    Track gain             : -5.86 dB
    Peak                   : 0.999969
    CRC32 hash (test run)  : E49A12AB
    CRC32 hash             : E49A12AB
    CRC32 hash (skip zero) : B3124784
    AccurateRip signature  : FE8FA69F
        ->Accurately ripped! (confidence 1)
    Statistics
        Read error                           : 0
        Jitter error (maybe fixed)           : 0
        Retry sector count                   : 0
        Damaged sector count                 : 0
Track 07
    Filename : /Volumes/Seagate4/Music/Mosaic - Complete Capitol Krupa James/Compilations - Complete Capitol Krupa & James (3/7) (1999) [FLAC]/07 Otto, Make The Riff Staccato.flac
    Track gain             : -5.96 dB
    Peak                   : 0.937927
    CRC32 hash (test run)  : 02D567A7
    CRC32 hash             : 02D567A7
    CRC32 hash (skip zero) : 32E5FE3A
    AccurateRip signature  : 05A8E5C3
        ->Accurately ripped! (confidence 1)
    Statistics
        Read error                           : 0
        Jitter error (maybe fixed)           : 0
        Retry sector count                   : 0
        Damaged sector count                 : 0
Track 08
    Filename : /Volumes/Seagate4/Music/Mosaic - Complete Capitol Krupa James/Compilations - Complete Capitol Krupa & James (3/7) (1999) [FLAC]/08 Sweet Lorraine.flac
    Track gain             : -2.63 dB
    Peak                   : 0.932953
    CRC32 hash (test run)  : 72469552
    CRC32 hash             : 72469552
    CRC32 hash (skip zero) : A5B55D2B
    AccurateRip signature  : 3D9CFAD6
        ->Accurately ripped! (confidence 1)
    Statistics
        Read error                           : 0
        Jitter error (maybe fixed)           : 0
        Retry sector count                   : 0
        Damaged sector count                 : 0
Track 09
    Filename : /Volumes/Seagate4/Music/Mosaic - Complete Capitol Krupa James/Compilations - Complete Capitol Krupa & James (3/7) (1999) [FLAC]/09 Wire Brush Stomp.flac
    Track gain             : -5.19 dB
    Peak                   : 0.997040
    CRC32 hash (test run)  : F7C89827
    CRC32 hash             : F7C89827
    CRC32 hash (skip zero) : DC3394C8
    AccurateRip signature  : FB3880F4
        ->Accurately ripped! (confidence 1)
    Statistics
        Read error                           : 0
        Jitter error (maybe fixed)           : 0
        Retry sector count                   : 0
        Damaged sector count                 : 0
Track 10
    Filename : /Volumes/Seagate4/Music/Mosaic - Complete Capitol Krupa James/Compilations - Complete Capitol Krupa & James (3/7) (1999) [FLAC]/10 Old Folks At Home.flac
    Track gain             : -5.44 dB
    Peak                   : 0.870331
    CRC32 hash (test run)  : 16AA7578
    CRC32 hash             : 16AA7578
    CRC32 hash (skip zero) : 9AD8FECB
    AccurateRip signature  : 3FE06807
        ->Accurately ripped! (confidence 1)
    Statistics
        Read error                           : 0
        Jitter error (maybe fixed)           : 0
        Retry sector count                   : 0
        Damaged sector count                 : 0
Track 11
    Filename : /Volumes/Seagate4/Music/Mosaic - Complete Capitol Krupa James/Compilations - Complete Capitol Krupa & James (3/7) (1999) [FLAC]/11 You Go To My Head.flac
    Track gain             : -5.15 dB
    Peak                   : 0.886292
    CRC32 hash (test run)  : E04EE450
    CRC32 hash             : E04EE450
    CRC32 hash (skip zero) : 0DB9E142
    AccurateRip signature  : 24F68831
        ->Accurately ripped! (confidence 1)
    Statistics
        Read error                           : 0
        Jitter error (maybe fixed)           : 0
        Retry sector count                   : 0
        Damaged sector count                 : 0
Track 12
    Filename : /Volumes/Seagate4/Music/Mosaic - Complete Capitol Krupa James/Compilations - Complete Capitol Krupa & James (3/7) (1999) [FLAC]/12 Bird House.flac
    Track gain             : -5.62 dB
    Peak                   : 0.994507
    CRC32 hash (test run)  : 09F993F7
    CRC32 hash             : 09F993F7
    CRC32 hash (skip zero) : 81ACEA49
    AccurateRip signature  : A9A11C41
        ->Accurately ripped! (confidence 1)
    Statistics
        Read error                           : 0
        Jitter error (maybe fixed)           : 0
        Retry sector count                   : 0
        Damaged sector count                 : 0
Track 13
    Filename : /Volumes/Seagate4/Music/Mosaic - Complete Capitol Krupa James/Compilations - Complete Capitol Krupa & James (3/7) (1999) [FLAC]/13 Lyonaise Potatoes And Some Pork Chops.flac
    Track gain             : -5.56 dB
    Peak                   : 0.951935
    CRC32 hash (test run)  : 11F98974
    CRC32 hash             : 11F98974
    CRC32 hash (skip zero) : 2C1B5367
    AccurateRip signature  : 654F97CE
        ->Accurately ripped! (confidence 1)
    Statistics
        Read error                           : 0
        Jitter error (maybe fixed)           : 0
        Retry sector count                   : 0
        Damaged sector count                 : 0
Track 14
    Filename : /Volumes/Seagate4/Music/Mosaic - Complete Capitol Krupa James/Compilations - Complete Capitol Krupa & James (3/7) (1999) [FLAC]/14 Bugle Call Rag.flac
    Track gain             : -5.35 dB
    Peak                   : 0.953857
    CRC32 hash (test run)  : B3E013B2
    CRC32 hash             : B3E013B2
    CRC32 hash (skip zero) : BAB21A3A
    AccurateRip signature  : C3139D05
        ->Accurately ripped! (confidence 1)
    Statistics
        Read error                           : 0
        Jitter error (maybe fixed)           : 0
        Retry sector count                   : 0
        Damaged sector count                 : 0
Track 15
    Filename : /Volumes/Seagate4/Music/Mosaic - Complete Capitol Krupa James/Compilations - Complete Capitol Krupa & James (3/7) (1999) [FLAC]/15 In The Moon Mist.flac
    Track gain             : -5.98 dB
    Peak                   : 0.935944
    CRC32 hash (test run)  : 17B03522
    CRC32 hash             : 17B03522
    CRC32 hash (skip zero) : 66092ABA
    AccurateRip signature  : 5D3144CC
        ->Accurately ripped! (confidence 1)
    Statistics
        Read error                           : 0
        Jitter error (maybe fixed)           : 0
        Retry sector count                   : 0
        Damaged sector count                 : 0
Track 16
    Filename : /Volumes/Seagate4/Music/Mosaic - Complete Capitol Krupa James/Compilations - Complete Capitol Krupa & James (3/7) (1999) [FLAC]/16 Where Or When.flac
    Track gain             : -2.64 dB
    Peak                   : 0.665009
    CRC32 hash (test run)  : BFC93409
    CRC32 hash             : BFC93409
    CRC32 hash (skip zero) : 40876AF5
    AccurateRip signature  : 67914CBC
        ->Accurately ripped! (confidence 1)
    Statistics
        Read error                           : 0
        Jitter error (maybe fixed)           : 0
        Retry sector count                   : 0
        Damaged sector count                 : 0
Track 17
    Filename : /Volumes/Seagate4/Music/Mosaic - Complete Capitol Krupa James/Compilations - Complete Capitol Krupa & James (3/7) (1999) [FLAC]/17 It's Up To You.flac
    Track gain             : -5.39 dB
    Peak                   : 0.999969
    CRC32 hash (test run)  : C2F0D24F
    CRC32 hash             : C2F0D24F
    CRC32 hash (skip zero) : A2338D5D
    AccurateRip signature  : 0FCE0828
        ->Accurately ripped! (confidence 1)
    Statistics
        Read error                           : 0
        Jitter error (maybe fixed)           : 0
        Retry sector count                   : 0
        Damaged sector count                 : 0
Track 18
    Filename : /Volumes/Seagate4/Music/Mosaic - Complete Capitol Krupa James/Compilations - Complete Capitol Krupa & James (3/7) (1999) [FLAC]/18 What Is This Thing Called Love.flac
    Track gain             : -3.91 dB
    Peak                   : 0.831604
    CRC32 hash (test run)  : 867F60A7
    CRC32 hash             : 867F60A7
    CRC32 hash (skip zero) : 8656E3DE
    AccurateRip signature  : DB009A3F
        ->Accurately ripped! (confidence 1)
    Statistics
        Read error                           : 0
        Jitter error (maybe fixed)           : 0
        Retry sector count                   : 0
        Damaged sector count                 : 0
Track 19
    Filename : /Volumes/Seagate4/Music/Mosaic - Complete Capitol Krupa James/Compilations - Complete Capitol Krupa & James (3/7) (1999) [FLAC]/19 Idaho.flac
    Track gain             : -4.36 dB
    Peak                   : 0.949432
    CRC32 hash (test run)  : 93C85303
    CRC32 hash             : 93C85303
    CRC32 hash (skip zero) : F54174F2
    AccurateRip signature  : E829EA4E
        ->Accurately ripped! (confidence 1)
    Statistics
        Read error                           : 0
        Jitter error (maybe fixed)           : 0
        Retry sector count                   : 0
        Damaged sector count                 : 0
No errors occurred
End of status report
 
 
Содержание индексной карты (.CUE)
TITLE "Complete Capitol Krupa & James (3/7)"
PERFORMER "Gene Krupa"
REM GENRE "Jazz"
REM DATE "1999"
REM DISCNUMBER 3
REM TOTALDISCS 7
REM DISCID 190E1413
REM REPLAYGAIN_ALBUM_GAIN -5.65 dB
REM REPLAYGAIN_ALBUM_PEAK 0.999969
FILE "01 Yesterdays.flac" WAVE
  TRACK 01 AUDIO
    TITLE "Yesterdays"
    REM REPLAYGAIN_TRACK_GAIN -5.98 dB
    REM REPLAYGAIN_TRACK_PEAK 0.955109
    INDEX 01 00:00:00
FILE "02 Baby, Won't You Please Come Home.flac" WAVE
  TRACK 02 AUDIO
    TITLE "Baby, Won't You Please Come Home"
    REM REPLAYGAIN_TRACK_GAIN -5.09 dB
    R
07:24
813
Нет комментариев. Ваш будет первым!