Поиск

1980 Teddy Wilson - Gershwin, Ellington and More (2006) {Jazz Hour JHR 73633} [CD]

1980 Teddy Wilson - Gershwin, Ellington and More (2006) {Jazz Hour JHR 73633} [CD]
Треклист:
01. It Ain't Necessarily So (Gershwin-Gershwin-Heyward)/Bess, You Is My Woman Now (Gershwin-Gershwin-Heyward)/Liza (All the Clouds'll Roll Away) (Gershwin-Gershwin-Kahn) - 5:03
02. The Man I Love (Gershwin-Gershwin)/Oh, Lady Be Good (Gershwin-Gershwin) - 5:36
03. Someone to Watch over Me (Gershwin-Gershwin)/Our Love Is Here to Stay (Gershwin-Gershwin) - 5:32
04. Summertime (Gershwin-Gershwin-Heyward) - 2:48
05. I Got Rhythm (Gershwin-Gershwin) - 3:58
06. I Can't Get Started (With You) (Gershwin-Duke)/Moonglow (Mills-Hudson-DeLange) - 3:38
07. Sophisticated Lady (Ellington-Mills-Parish)/Don't Get Around Much Anymore (Ellington-Russell) - 3:31
08. In My Solitude (Ellington-Mills-DeLange)/Take the "A" Train (Strayhorn) - 5:41
09. Satin Doll (Ellington-Strayhorn-Mercer) - 5:29
10. Prelude to a Kiss (Ellington-Gordon-Mills)/It Don't Mean a Thing (If It Ain't Got That Swing) (Ellington-Mills) - 5:15
11. Perdido (Tizol-Drake-Lengsfelder) - 5:11
12. Lush Life (Strayhorn) - 1:52
13. Stompin' at the Savoy (Sampson-Razaf-Goodman-Webb) - 2:31
14. Avalon (Rose-Jolson-DeSylva) - 4:12
Состав:

Recorded in Atlanta, GA on August 17, 1980.

Лог создания рипа
Exact Audio Copy V1.0 beta 3 from 29. August 2011
EAC extraction logfile from 19. May 2013, 19:19
Teddy Wilson / A Jazz Hour with Teddy Wilson: Gershwin, Ellington and More
Used drive  : ASUS    DRW-24B1LT   Adapter: 5  ID: 1
Read mode               : Secure
Utilize accurate stream : Yes
Defeat audio cache      : Yes
Make use of C2 pointers : No
Read offset correction                      : 6
Overread into Lead-In and Lead-Out          : No
Fill up missing offset samples with silence : Yes
Delete leading and trailing silent blocks   : No
Null samples used in CRC calculations       : Yes
Used interface                              : Native Win32 interface for Win NT & 2000
Used output format              : User Defined Encoder
Selected bitrate                : 768 kBit/s
Quality                         : High
Add ID3 tag                     : No
Command line compressor         : C:\Program Files\Exact Audio Copy\Flac\flac.exe
Additional command line options : -8 -V -T "ARTIST=%artist%" -T "TITLE=%title%" -T "ALBUM=%albumtitle%" -T "DATE=%year%" -T "TRACKNUMBER=%tracknr%" -T "TOTALTRACKS=%numtracks%" -T "GENRE=%genre%" -T "ALBUMARTIST=%albumartist%" -T "ALBUM ARTIST=%albumartist%" -T "COMMENT=EAC Secure Mode, Test & Copy, AccurateRip, FLAC -8" %source%
TOC of the extracted CD
     Track |   Start  |  Length  | Start sector | End sector
    ---------------------------------------------------------
        1  |  0:00.00 |  5:03.16 |         0    |    22740
        2  |  5:03.16 |  5:36.36 |     22741    |    47976
        3  | 10:39.52 |  5:32.35 |     47977    |    72911
        4  | 16:12.12 |  2:48.31 |     72912    |    85542
        5  | 19:00.43 |  3:58.15 |     85543    |   103407
        6  | 22:58.58 |  3:37.69 |    103408    |   119751
        7  | 26:36.52 |  3:31.34 |    119752    |   135610
        8  | 30:08.11 |  5:40.60 |    135611    |   161170
        9  | 35:48.71 |  5:28.52 |    161171    |   185822
       10  | 41:17.48 |  5:14.64 |    185823    |   209436
       11  | 46:32.37 |  5:10.55 |    209437    |   232741
       12  | 51:43.17 |  1:52.16 |    232742    |   241157
       13  | 53:35.33 |  2:30.43 |    241158    |   252450
       14  | 56:06.01 |  4:12.37 |    252451    |   271387
Range status and errors
Selected range
     Filename F:\audio\Teddy Wilson - A Jazz Hour with Teddy Wilson- Gershwin, Ellington and More.wav
     Peak level 98.8 %
     Extraction speed 6.1 X
     Range quality 99.9 %
     Test CRC A96816D7
     Copy CRC A96816D7
     Copy OK
No errors occurred
AccurateRip summary
Track  1  not present in database
Track  2  not present in database
Track  3  not present in database
Track  4  not present in database
Track  5  not present in database
Track  6  not present in database
Track  7  not present in database
Track  8  not present in database
Track  9  not present in database
Track 10  not present in database
Track 11  not present in database
Track 12  not present in database
Track 13  not present in database
Track 14  not present in database
None of the tracks are present in the AccurateRip database
End of status report
---- CUETools DB Plugin V2.1.3
[CTDB TOCID: T5pHOxnxz.4Txsj8Cqv7bnb.e94-] disk not present in database, Submit result: T5pHOxnxz.4Txsj8Cqv7bnb.e94- has been uploaded
==== Log checksum 331C1A872527C828B33CBAE644674AA97964D9538F88FD6F19F8C1189296AB2D ====
Содержание индексной карты (.CUE)
REM GENRE Jazz
REM DATE 1980
REM DISCID BC0E220E
REM COMMENT "ExactAudioCopy v1.0b3"
PERFORMER "Teddy Wilson"
TITLE "A Jazz Hour with Teddy Wilson: Gershwin, Ellington and More"
FILE "Teddy Wilson - Gershwin, Ellington and More.wav" WAVE
  TRACK 01 AUDIO
    TITLE "It Ain't Necessarily So/Bess, You Is My Woman Now/Liza (All the Clouds'll Roll Away)"
    PERFORMER "Teddy Wilson"
    INDEX 01 00:00:00
  TRACK 02 AUDIO
    TITLE "The Man I Love/Oh, Lady Be Good"
    PERFORMER "Teddy Wilson"
    INDEX 01 05:03:16
  TRACK 03 AUDIO
    TITLE "Someone to Watch over Me/Our Love Is Here to Stay"
    PERFORMER "Teddy Wilson"
    INDEX 01 10:39:52
  TRACK 04 AUDIO
    TITLE "Summertime"
    PERFORMER "Teddy Wilson"
    INDEX 01 16:12:12
  TRACK 05 AUDIO
    TITLE "I Got Rhythm"
    PERFORMER "Teddy Wilson"
    INDEX 01 19:00:43
  TRACK 06 AUDIO
    TITLE "I Can't Get Started (With You)/Moonglow"
    PERFORMER "Teddy Wilson"
    INDEX 01 22:58:58
  TRACK 07 AUDIO
    TITLE "Sophisticated Lady/Don't Get Around Much Anymore"
    PERFORMER "Teddy Wilson"
    INDEX 01 26:36:52
  TRACK 08 AUDIO
    TITLE "In My Solitude/Take the 'A' Train"
    PERFORMER "Teddy Wilson"
    INDEX 01 30:08:11
  TRACK 09 AUDIO
    TITLE "Satin Doll"
    PERFORMER "Teddy Wilson"
    INDEX 01 35:48:71
  TRACK 10 AUDIO
    TITLE "Prelude to a Kiss/It Don't Mean a Thing (If It Ain't Got That Swing)"
    PERFORMER "Teddy Wilson"
    INDEX 01 41:17:48
  TRACK 11 AUDIO
    TITLE "Perdido"
    PERFORMER "Teddy Wilson"
    INDEX 01 46:32:37
  TRACK 12 AUDIO
    TITLE "Lush Life"
    PERFORMER "Teddy Wilson"
    INDEX 01 51:43:17
  TRACK 13 AUDIO
    TITLE "Stompin' at the Savoy"
    PERFORMER "Teddy Wilson"
    INDEX 01 53:35:33
  TRACK 14 AUDIO
    TITLE "Avalon"
    PERFORMER "Teddy Wilson"
    INDEX 01 56:06:01
08:25
791
Нет комментариев. Ваш будет первым!