Поиск

1997 The Bill Crow Quartet - Jazz Anecdotes (2016) {Venus VHGD-168} [DSD64 ISO]

1997 The Bill Crow Quartet - Jazz Anecdotes (2016) {Venus VHGD-168} [DSD64 ISO]
Стили:
Дата записи диска:
19 ноября - 20 ноября 1996
Место записи:
Van Gelder Recording Studio, Englewood Cliffs, New Jersey, USA
Издатель (лейбл):
Номер по каталогу:
VHGD-168
Носитель:
SACD
Формат:
DSD
Тип рипа:
image
Контейнер:
ISO (*.iso)
Количество каналов:
2.0
Разрядность/ЧД:
64 (2,8 MHz/1 Bit)
Битрейт аудио:
lossless
Время звучания:
01:01:04
Наличие сканов:
да

01. Jazz Anecdotes  04:14
02. Bohemia After Dark  04:02
03. In A Mellotone  04:55
04. Street Of Dreams  06:00
05. Tarrytown  04:31
06. Lover, Come Back To Me  04:51
07. On The Alamo  04:37
08. Mack The Knife  04:20
09. These Foolish Things  08:12
10. 'Round Midnight  06:33
11. Speak Low  06:04
12. Tickletoe  03:19

Состав:
  • Bass – Bill Crow
  • Drums – David Jones*
  • Engineer [Assistant] – Maureen Sickler
  • Engineer [Cutting] – Kazumi Tezuka
  • Guitar – Joe Cohn
  • Producer – Tetsuo Hara
  • Recorded By, Mixed By – Rudy Van Gelder
  • Tenor Saxophone – Carmen Leggio
Лог проверки качества
foobar2000 1.6.4 / Dynamic Range Meter 1.1.1
log date: 2021-07-14 20:04:55

--------------------------------------------------------------------------------
Analyzed: THE BILL CROW QUARTET / Jazz Anecdotes
--------------------------------------------------------------------------------

DR         Peak         RMS     Duration Track
--------------------------------------------------------------------------------
DR11      -4.79 dB   -17.64 dB      4:11 01-Jazz Anecdotes
DR10      -4.27 dB   -16.42 dB      3:59 02-Bohemia After Dark
DR10      -4.74 dB   -17.94 dB      4:52 03-In A Mellotone
DR11      -4.81 dB   -18.39 dB      5:57 04-Street Of Dreams
DR10      -4.85 dB   -17.73 dB      4:28 05-Tarrytown
DR11      -4.68 dB   -17.56 dB      4:48 06-Lover, Come Back To Me
DR10      -4.81 dB   -17.28 dB      4:33 07-On The Alamo
DR12      -4.84 dB   -19.23 dB      4:17 08-Mack The Knife
DR11      -4.85 dB   -19.12 dB      8:09 09-These Foolish Things
DR11      -4.87 dB   -18.16 dB      6:30 10-'Round Midnight
DR11      -4.81 dB   -18.28 dB      6:00 11-Speak Low
DR11      -4.83 dB   -17.87 dB      3:19 12-Tickletoe
--------------------------------------------------------------------------------

Number of tracks:  12
Official DR value: DR11

Samplerate:        2822400 Hz / PCM Samplerate: 88200 Hz
Channels:          2
Bits per sample:   1
Bitrate:           5645 kbps
Codec:             DSD64
================================================================================
Приватный:
Нет (DHT включён)
Размер:
2.48 Гб (2,665,927,030 байт) » файлов: 5
Участники:
0 раздают, 0 качают (0 участников всего)
Внешние участники:
9 раздают, 3 качают (12 участников всего) [ Обновить ]
04:33
609
Нет комментариев. Ваш будет первым!