Поиск

2006 David Hazeltine Trio - Cleopatra's Dream (2015) {Venus VHGD-86} [DSD64 ISO]

2006 David Hazeltine Trio - Cleopatra's Dream (2015) {Venus VHGD-86} [DSD64 ISO]
Дата записи диска:
24 июня - 25 июня 2005
Место записи:
The Studio, New York City, NY, USA
Дата издания диска:
29 мая 2006
Издатель (лейбл):
Номер по каталогу:
VHGD-86
Носитель:
SACD
Формат:
DSD
Тип рипа:
image
Контейнер:
ISO (*.iso)
Количество каналов:
2.0
Разрядность/ЧД:
64 (2,8 MHz/1 Bit)
Битрейт аудио:
lossless
Время звучания:
00:56:02
Наличие сканов:
да

Треклист:

01. Cleopatra's Dream  05:19
02. Tempus Fugit  03:11
03. Glass Enclosure  03:48
04. Wail  05:26
05. Bouncing With Bud  06:55
06. Danceland  06:29
07. Strictly Confidential  05:59
08. Dance Of Infidels  04:52
09. I'll Keep Loving You  07:36
10. This One's For Bud  07:08

Состав:
  • Todd Barkan    Producer
  • Billy Drummond    Drums
  • Tetsuo Hara    Mastering, Mixing, Producer
  • David Hazeltine    Piano
  • Shuji Kitamura    Mastering, Mixing
  • George Mraz    Bass
Лог проверки качества
foobar2000 1.3.13 / Замер динамического диапазона (DR) 1.1.1
Дата отчёта:  2017-10-02 13:45:04

--------------------------------------------------------------------------------
Анализ:   DAVID HAZELTINE TRIO / Cleopatra's Dream
--------------------------------------------------------------------------------

DR         Пики         RMS           Продолжительность трека
--------------------------------------------------------------------------------
DR8       -4.74 дБ   -14.95 дБ      5:14 01-Cleopatra's Dream
DR8       -4.55 дБ   -13.62 дБ      3:06 02-Tempus Fugit
DR8       -4.66 дБ   -15.15 дБ      3:43 03-Glass Enclosure
DR8       -4.54 дБ   -14.64 дБ      5:21 04-Wail
DR10      -5.22 дБ   -17.52 дБ      6:50 05-Bouncing With Bud
DR8       -4.75 дБ   -15.66 дБ      6:24 06-Danceland
DR8       -4.10 дБ   -14.58 дБ      5:54 07-Strictly Confidential
DR8       -4.37 дБ   -14.39 дБ      4:48 08-Dance Of Infidels
DR11      -5.49 дБ   -19.22 дБ      7:31 09-I'll Keep Loving You
DR8       -4.74 дБ   -14.73 дБ      7:08 10-This One's For Bud
--------------------------------------------------------------------------------

Количество треков: 10
Реальные значения DR: DR8

Частота:   2822400 Гц / Частота PCM: 88200 Гц
Каналов:   2
Разрядность:   24
Битрейт:   5645 кбит/с
Кодек:   DSD64
================================================================================
По всем вопросам пишите личное сообщение пользователю M0p94ok.
21:58
278
Нет комментариев. Ваш будет первым!