Поиск

2021 Todd Cochran - Then And Again, Here And Now {Sunnyside} [24-96]

2021 Todd Cochran - Then And Again, Here And Now {Sunnyside} [24-96]
Стили:
Дата записи диска:
11 июня 2021
Издатель (лейбл):
Носитель:
WEB
Формат:
PCM
Тип рипа:
tracks
Контейнер:
FLAC (*.flac)
Количество каналов:
2.0
Разрядность/ЧД:
24/96
Битрейт аудио:
lossless
Время звучания:
00:57:45
Наличие сканов:
буклет pdf

Треклист:

01. Softly As In A Morning Sunrise (4:34)
02. Foggy Day (6:15)
03. I Got Rhythm (4:12)
04. Verselet For The Duke (1:27)
05. The Duke (4:35)
06. Don't Get Around Much Anymore (5:13)
07. Heretofore (Interstitial 1) (1:22)
08. Fantaisie J.S. Bach Prelude XX WTC Book II (3:54)
09. April In Paris (4:20)
10. Between Spaces (Interstitial 2) (1:32)
11. Invitation (4:15)
12. You Must Believe In Spring (4:48)
13. Bemsha Swing (4:38)
14. Little B's Poem (4:52)
15. Then And Again, Here And Now (1:48)

Состав:
  • Todd Cochran - p
  • John Leftwich - b
  • Michael Carvin - d
Лог проверки качества
foobar2000 1.3.9 / Dynamic Range Meter 1.1.1
log date: 2021-07-15 02:45:50

--------------------------------------------------------------------------------
Analyzed: Todd Cochran / Then And Again, Here And Now
--------------------------------------------------------------------------------

DR         Peak         RMS     Duration Track
--------------------------------------------------------------------------------
DR12       0.00 dB   -14.28 dB      4:34 01-Softly As In A Morning Sunrise
DR11       0.00 dB   -14.81 dB      6:15 02-Foggy Day
DR10       0.00 dB   -12.58 dB      4:12 03-I Got Rhythm
DR11      -4.88 dB   -19.58 dB      1:27 04-Verselet For The Duke
DR11       0.00 dB   -13.34 dB      4:35 05-The Duke
DR12      -0.55 dB   -15.67 dB      5:13 06-Don't Get Around Much Anymore
DR9        0.00 dB   -11.75 dB      1:22 07-Heretofore (Interstitial 1)
DR10      -3.46 dB   -16.71 dB      3:54 08-Fantaisie J.S. Bach Prelude XX WTC Book II
DR12      -0.26 dB   -16.13 dB      4:20 09-April In Paris
DR11      -1.44 dB   -15.47 dB      1:32 10-Between Spaces (Interstitial 2)
DR8        0.00 dB   -10.34 dB      4:15 11-Invitation
DR11      -0.10 dB   -16.62 dB      4:48 12-You Must Believe In Spring
DR11       0.00 dB   -13.77 dB      4:38 13-Bemsha Swing
DR11       0.00 dB   -13.81 dB      4:52 14-Little B's Poem
DR11      -1.32 dB   -15.64 dB      1:48 15-Then And Again, Here And Now
--------------------------------------------------------------------------------

Number of tracks:  15
Official DR value: DR11

Samplerate:        96000 Hz
Channels:          2
Bits per sample:   24
Bitrate:           2610 kbps
Codec:             FLAC
================================================================================
По всем вопросам пишите личное сообщение пользователю M0p94ok.
13:56
254
Нет комментариев. Ваш будет первым!