Поиск

1995 Roots with Benny Golson, Chico Freeman, Arthur Blythe & Nathan Davis - Saying Something (2016) {In+Out} [24-44.1]

1995 Roots with Benny Golson, Chico Freeman, Arthur Blythe & Nathan Davis - Saying Something (2016) {In+Out} [24-44.1]
Стили:
Дата записи диска:
14 июня 1995
Место записи:
Muddy's Club Weinheim, Germany
Дата издания диска:
1 ноября 1995
Издатель (лейбл):
Номер по каталогу:
IOR 77031-2
Носитель:
WEB
Формат:
PCM
Тип рипа:
tracks
Контейнер:
FLAC (*.flac)
Количество каналов:
2.0
Разрядность/ЧД:
24/44,1
Битрейт аудио:
lossless
Время звучания:
01:06:54
Наличие сканов:
только обложка

01 - Lester Left Town 07:39
02 - Night Dreamer 08:19
03 - Heaven Dance 08:16
04 - Ballads for Trane: It's Easy to Remember / Soul Eyes / You Leave Me Breathless / In a Sentimental Mood / How Deep Is the Ocean 14:51
05 - Samba for Now 11:03
06 - Toku-Du 08:01
07 - Lester Leaps In 08:45

Состав:
  •     Alto Saxophone – Arthur Blythe
  •     Bass – Buster Williams
  •     Design – Jürgen Schwab
  •     Drums – Ed Thigpen
  •     Engineer – Winnie Leyh
  •     Engineer [Stage] – Markus Born
  •     Liner Notes – Nat Hentoff
  •     Photography By – Claus Willemer
  •     Piano – Kirk Lightsey
  •     Producer – Mike Hennessey
  •     Tenor Saxophone – Benny Golson
  •     Tenor Saxophone, Soprano Saxophone – Chico Freeman, Nathan Davis
Лог проверки качества
foobar2000 1.4.3 / Dynamic Range Meter 1.1.1
log date: 2021-12-17 20:25:39
--------------------------------------------------------------------------------
Analyzed: Roots / Saying Something
--------------------------------------------------------------------------------
DR         Peak         RMS     Duration Track
--------------------------------------------------------------------------------
DR9       -1.05 dB   -11.86 dB      7:39 01-Lester Left Town
DR8       -1.05 dB   -11.60 dB      8:19 02-Night Dreamer
DR8       -1.05 dB   -12.07 dB      8:16 03-Heaven Dance
DR12      -1.05 dB   -17.52 dB     14:51 04-Ballads for Trane: It's Easy to Remember / Soul Eyes / You Leave Me Breathless / In a Sentimental Mood / How Deep Is the Ocean
DR9       -1.05 dB   -12.96 dB     11:03 05-Samba for Now
DR9       -1.05 dB   -12.19 dB      8:02 06-Toku-Du
DR8       -1.05 dB   -11.84 dB      8:45 07-Lester Leaps In
--------------------------------------------------------------------------------
Number of tracks:  7
Official DR value: DR9
Samplerate:        44100 Hz
Channels:          2
Bits per sample:   24
Bitrate:           1671 kbps
Codec:             FLAC
================================================================================
Приватный:
Нет (DHT включён)
Размер:
757.87 Мб (794,680,284 байт) » файлов: 13
Участники:
0 раздают, 0 качают (0 участников всего)
Внешние участники:
--- [ Обновить ]
16:01
410
Нет комментариев. Ваш будет первым!