Поиск

1974 Kunihiko Sugano - Portrait II: The World of Kunihiko Sugano (2002) {Octavia} [DSD64 ISO]

1974 Kunihiko Sugano - Portrait II: The World of Kunihiko Sugano (2002) {Octavia} [DSD64 ISO]
Стили:
Дата издания диска:
9 ноября 1974
Носитель:
SACD
Формат:
PCM
Тип рипа:
tracks
Контейнер:
FLAC (*.flac)
Количество каналов:
2.0
Разрядность/ЧД:
64 (2,8 MHz/1 Bit)
Битрейт аудио:
lossless
Время звучания:
00:40:29
Наличие сканов:
только обложка

01. Ludwig Jazz Beethoven  03:29
02. Moonlight in Vermont  04:17
03. The Subterraneans  03:07
04. Girl of My Dreams  04:18
05. Dear Old Stockholm  03:21
06. Poor Butterfly  02:05
07. I'm a Fool to Want You  03:07
08. Blues for H.Hawes  03:14
09. On a Clear Day  01:54
10. Blues for Nao  05:38
11. Fly Me to the Moon  03:23
12. Takasaki Blues  03:20

Состав:
  • Kunihiko Sugano     piano
Лог проверки качества
foobar2000 1.6.5 / Замер динамического диапазона (DR) 1.1.1
Дата отчёта:  2021-12-18 13:18:45
--------------------------------------------------------------------------------
Анализ:   Kunihiko Sugano / Portrait II
--------------------------------------------------------------------------------
DR         Пики         RMS           Продолжительность трека
--------------------------------------------------------------------------------
DR11      -7.17 дБ   -21.48 дБ      3:25 01-Ludwig Jazz Beethoven
DR14     -13.49 дБ   -31.71 дБ      4:13 02-Moonlight in Vermont
DR13      -7.33 дБ   -26.36 дБ      3:04 03-The Subterraneans
DR10      -7.62 дБ   -20.60 дБ      4:15 04-Blues and girl of my dreams
DR11      -8.06 дБ   -22.90 дБ      3:17 05-Dear old Stockholm
DR12     -12.02 дБ   -31.09 дБ      1:59 06-Poor butterfly
DR12     -13.91 дБ   -31.94 дБ      3:04 07-I never want you
DR11      -7.40 дБ   -22.14 дБ      3:10 08-Blues for H. Hawes
DR14     -14.10 дБ   -32.62 дБ      1:51 09-On a clear day
DR12      -8.70 дБ   -25.80 дБ      5:35 10-Blues for Nao
DR13     -11.46 дБ   -29.96 дБ      3:19 11-Fly me to the moon
DR12      -9.78 дБ   -25.94 дБ      3:19 12-Takasaki blues
--------------------------------------------------------------------------------
Количество треков: 12
Реальные значения DR: DR12
Частота:   2822400 Гц / Частота PCM: 88200 Гц
Каналов:   2
Разрядность:   1
Битрейт:   5645 кбит/с
Кодек:   DSD64
================================================================================
Приватный:
Нет (DHT включён)
Размер:
1.65 Гб (1,775,446,987 байт) » файлов: 5
Участники:
0 раздают, 0 качают (0 участников всего)
Внешние участники:
5 раздают, 1 качают (6 участников всего) [ Обновить ]
19:36
387
Нет комментариев. Ваш будет первым!