Поиск

1974 Kunihiko Sugano - Portrait: The World of Kunihiko Sugano (2002) {Octavia} [DSD64 ISO]

1974 Kunihiko Sugano - Portrait: The World of Kunihiko Sugano (2002) {Octavia} [DSD64 ISO]
Стили:
Дата переиздания диска:
20 марта 2002
Номер по каталогу:
OVXA-00011
Носитель:
SACD
Формат:
DSD
Тип рипа:
image
Контейнер:
ISO (*.iso)
Количество каналов:
2.0
Разрядность/ЧД:
64 (2,8 MHz/1 Bit)
Битрейт аудио:
lossless
Время звучания:
00:42:41
Наличие сканов:
только обложка

01. Can't Help Lovin' Dat Man  04:26
02. Tennessee Waltz  03:58
03. Lonely Blues  04:44
04. Golden Earrings  04:13
05. Ringo Oiwake  03:51
06. These Foolish Things  04:10
07. Opera Porgy and Bess Aria Summertime  03:36
08. Les parapluies de cherbourg  05:09
09. Autumn Leaves  06:58
10. Sunayama  01:59

Состав:
  • Kunihiko Sugano    piano
Лог проверки качества
foobar2000 1.6.5 / Замер динамического диапазона (DR) 1.1.1
Дата отчёта:  2021-12-11 01:12:41
--------------------------------------------------------------------------------
Анализ:   Kunihiko Sugano / Portrait
--------------------------------------------------------------------------------
DR         Пики         RMS           Продолжительность трека
--------------------------------------------------------------------------------
DR17      -7.53 дБ   -32.81 дБ      4:23 01-Can't help lovin' dat man
DR14      -7.31 дБ   -28.77 дБ      3:56 02-Tennessee Waltz
DR11      -6.38 дБ   -21.65 дБ      4:41 03-Lonely Blues
DR14      -6.37 дБ   -26.85 дБ      4:10 04-Golden Earings
DR11      -4.88 дБ   -24.01 дБ      3:47 05-Ringo Oiwake
DR17      -6.65 дБ   -29.94 дБ      4:06 06-These foolish things
DR14      -6.77 дБ   -26.92 дБ      3:34 07-Summertime
DR14      -5.94 дБ   -26.35 дБ      5:07 08-Les Parapluies de Cherbourg
DR11      -6.08 дБ   -22.80 дБ      6:55 09-Autumn Leaves
DR13      -7.73 дБ   -27.67 дБ      2:01 10-Sunayama
--------------------------------------------------------------------------------
Количество треков: 10
Реальные значения DR: DR14
Частота:   2822400 Гц / Частота PCM: 88200 Гц
Каналов:   2
Разрядность:   1
Битрейт:   5645 кбит/с
Кодек:   DSD64
================================================================================
Приватный:
Нет (DHT включён)
Размер:
1.73 Гб (1,860,967,918 байт) » файлов: 5
Участники:
0 раздают, 0 качают (0 участников всего)
Внешние участники:
5 раздают, 1 качают (6 участников всего) [ Обновить ]
14:34
423
Нет комментариев. Ваш будет первым!