Поиск

1995 Cootie Williams - Sextet And Big Band 1941-1944 (Jazz Archives 11) {Epm} [CD]

1995 Cootie Williams - Sextet And Big Band 1941-1944 (Jazz Archives 11) {Epm} [CD]
Стили:
Дата записи диска:
7 мая 1941 - 22 августа 1944
Номер по каталогу:
158382
Носитель:
CD
Тип рипа:
tracks+.cue
Аудиокодек:
FLAC (*.flac)
Битрейт аудио:
lossless
Время звучания:
01:12:46
Наличие сканов:
да
Страна-производитель диска (релиза):
France
Релизёр (источник):
Musicgate
Лог создания рипа
Exact Audio Copy V0.99 prebeta 4 from 23. January 2008

EAC extraction logfile from 6. April 2010, 12:24

Cootie Williams / Sextet And Big Band  {1941-1944}

Used drive  : HL-DT-STDVD-RAM GH22NP20   Adapter: 0  ID: 0

Read mode               : Secure
Utilize accurate stream : Yes
Defeat audio cache      : Yes
Make use of C2 pointers : No

Read offset correction                      : 102
Overread into Lead-In and Lead-Out          : No
Fill up missing offset samples with silence : Yes
Delete leading and trailing silent blocks   : No
Null samples used in CRC calculations       : Yes
Used interface                              : Installed external ASPI interface
Gap handling                                : Appended to previous track

Used output format              : User Defined Encoder
Selected bitrate                : 320 kBit/s
Quality                         : High
Add ID3 tag                     : No
Command line compressor         : C:\Program Files\Exact Audio Copy\Flac\flac.exe
Additional command line options : -V -8 -T "artist=%a" -T "title=%t" -T "album=%g" -T "date=%y" -T "tracknumber=%n" -T "genre=%m" %s

TOC of the extracted CD

     Track |   Start  |  Length  | Start sector | End sector
    ---------------------------------------------------------
        1  |  0:00.32 |  2:45.53 |        32    |    12459
        2  |  2:46.10 |  3:13.12 |     12460    |    26946
        3  |  5:59.22 |  2:39.45 |     26947    |    38916
        4  |  8:38.67 |  3:07.28 |     38917    |    52969
        5  | 11:46.20 |  2:32.52 |     52970    |    64421
        6  | 14:18.72 |  2:42.65 |     64422    |    76636
        7  | 17:01.62 |  2:39.00 |     76637    |    88561
        8  | 19:40.62 |  3:04.23 |     88562    |   102384
        9  | 22:45.10 |  3:12.32 |    102385    |   116816
       10  | 25:57.42 |  3:02.15 |    116817    |   130481
       11  | 28:59.57 |  3:14.20 |    130482    |   145051
       12  | 32:14.02 |  2:31.08 |    145052    |   156384
       13  | 34:45.10 |  2:58.60 |    156385    |   169794
       14  | 37:43.70 |  3:04.27 |    169795    |   183621
       15  | 40:48.22 |  3:15.00 |    183622    |   198246
       16  | 44:03.22 |  3:07.68 |    198247    |   212339
       17  | 47:11.15 |  3:11.00 |    212340    |   226664
       18  | 50:22.15 |  3:11.10 |    226665    |   240999
       19  | 53:33.25 |  2:26.12 |    241000    |   251961
       20  | 55:59.37 |  2:55.50 |    251962    |   265136
       21  | 58:55.12 |  3:11.15 |    265137    |   279476
       22  | 62:06.27 |  3:15.48 |    279477    |   294149
       23  | 65:22.00 |  3:15.05 |    294150    |   308779
       24  | 68:37.05 |  2:44.60 |    308780    |   321139
       25  | 71:21.65 |  3:17.25 |    321140    |   335939

Track  1

     Filename D:\music\Musicgate's rips\Cootie Williams - Sextet And Big Band  {1941-1944} (1995)\01 - G-Men   [1941].wav

     Pre-gap length  0:00:02.42

     Peak level 91.5 %
     Track quality 99.9 %
     Test CRC 8CB2967C
     Copy CRC 8CB2967C
     Accurately ripped (confidence 1)  [BFC48EA9]
     Copy OK

Track  2

     Filename D:\music\Musicgate's rips\Cootie Williams - Sextet And Big Band  {1941-1944} (1995)\02 - West End Blues   [1941].wav

     Pre-gap length  0:00:02.46

     Peak level 90.7 %
     Track quality 100.0 %
     Test CRC B42D7D59
     Copy CRC B42D7D59
     Accurately ripped (confidence 1)  [D13AE133]
     Copy OK

Track  3

     Filename D:\music\Musicgate's rips\Cootie Williams - Sextet And Big Band  {1941-1944} (1995)\03 - Ain't Misbehavin'   [1941].wav

     Pre-gap length  0:00:02.53

     Peak level 92.5 %
     Track quality 100.0 %
     Test CRC 711EC0FF
     Copy CRC 711EC0FF
     Accurately ripped (confidence 1)  [BF724E11]
     Copy OK

Track  4

     Filename D:\music\Musicgate's rips\Cootie Williams - Sextet And Big Band  {1941-1944} (1995)\04 - Blues In My Condition   [1941].wav

     Pre-gap length  0:00:02.53

     Peak level 91.8 %
     Track quality 100.0 %
     Test CRC 82891C20
     Copy CRC 82891C20
     Accurately ripped (confidence 1)  [68FADB69]
     Copy OK

Track  5

     Filename D:\music\Musicgate's rips\Cootie Williams - Sextet And Big Band  {1941-1944} (1995)\05 - Fly Right  (Epistrophy)   [1942].wav

     Pre-gap length  0:00:02.53

     Peak level 93.2 %
     Track quality 100.0 %
     Test CRC 68F67B9F
     Copy CRC 68F67B9F
     Accurately ripped (confidence 1)  [20563E0F]
     Copy OK

Track  6

     Filename D:\music\Musicgate's rips\Cootie Williams - Sextet And Big Band  {1941-1944} (1995)\06 - When My Baby Left Me   [1942].wav

     Pre-gap length  0:00:02.46

     Peak level 91.2 %
     Track quality 100.0 %
     Test CRC 85782625
     Copy CRC 85782625
     Accurately ripped (confidence 1)  [3E728870]
     Copy OK

Track  7

     Filename D:\music\Musicgate's rips\Cootie Williams - Sextet And Big Band  {1941-1944} (1995)\07 - Floogie Boo   [1944].wav

     Pre-gap length  0:00:02.56

     Peak level 92.7 %
     Track quality 100.0 %
     Test CRC A94315A4
     Copy CRC A94315A4
     Accurately ripped (confidence 1)  [9443A928]
     Copy OK

Track  8

     Filename D:\music\Musicgate's rips\Cootie Williams - Sextet And Big Band  {1941-1944} (1995)\08 - Gotta Do Some War Work, Baby   [1944].wav

     Pre-gap length  0:00:02.49

     Peak level 93.2 %
     Track quality 99.9 %
     Test CRC A5CA016D
     Copy CRC A5CA016D
     Accurately ripped (confidence 1)  [75E6DA72]
     Copy OK

Track  9

     Filename D:\music\Musicgate's rips\Cootie Williams - Sextet And Big Band  {1941-1944} (1995)\09 - I Don't Know   [1944].wav

     Pre-gap length  0:00:02.37

     Peak level 93.2 %
     Track quality 100.0 %
     Test CRC 60ACBE10
     Copy CRC 60ACBE10
     Accurately ripped (confidence 1)  [5CD5B36A]
     Copy OK

Track 10

     Filename D:\music\Musicgate's rips\Cootie Williams - Sextet And Big Band  {1941-1944} (1995)\10 - You Talk A Little Trash   [1944].wav

     Pre-gap length  0:00:02.40

     Peak level 91.2 %
     Track quality 100.0 %
     Test CRC 33E6015C
     Copy CRC 33E6015C
     Accurately ripped (confidence 1)  [3DA356D0]
     Copy OK

Track 11

     Filename D:\music\Musicgate's rips\Cootie Williams - Sextet And Big Band  {1941-1944} (1995)\11 - Things Ain't What They Used To Be   [1944].wav

     Pre-gap length  0:00:02.56

     Peak level 91.4 %
     Track quality 99.9 %
     Test CRC 3558E627
     Copy CRC 3558E627
     Accurately ripped (confidence 1)  [EBFF4B08]
     Copy OK

Track 12

     Filename D:\music\Musicgate's rips\Cootie Williams - Sextet And Big Band  {1941-1944} (1995)\12 - Tess' Torch Song   [1944].wav

     Pre-gap length  0:00:02.56

     Peak level 92.6 %
     Track quality 99.9 %
     Test CRC BD926196
     Copy CRC BD926196
     Accurately ripped (confidence 1)  [54D2B519]
     Copy OK

Track 13

     Filename D:\music\Musicgate's rips\Cootie Williams - Sextet And Big Band  {1941-1944} (1995)\13 - Now I Now   [1944].wav

     Pre-gap length  0:00:02.46

     Peak level 92.5 %
     Track quality 100.0 %
     Test CRC 12106A21
     Copy CRC 12106A21
     Accurately ripped (confidence 1)  [8247149C]
     Copy OK

Track 14

     Filename D:\music\Musicgate's rips\Cootie Williams - Sextet And Big Band  {1941-1944} (1995)\14 - Cherry Red Blues   [1944].wav

     Pre-gap length  0:00:02.53

     Peak level 92.2 %
     Track quality 100.0 %
     Test CRC 9AAFEC63
     Copy CRC 9AAFEC63
     Accurately ripped (confidence 1)  [8869EC5A]
     Copy OK

Track 15

     Filename D:\music\Musicgate's rips\Cootie Williams - Sextet And Big Band  {1941-1944} (1995)\15 - My Old Flame   [1944].wav

     Pre-gap length  0:00:02.46

     Peak level 91.3 %
     Track quality 100.0 %
     Test CRC 9388EEC8
     Copy CRC 9388EEC8
     Accurately ripped (confidence 1)  [21184055]
     Copy OK

Track 16

     Filename D:\music\Musicgate's rips\Cootie Williams - Sextet And Big Band  {1941-1944} (1995)\16 - Echoes Of Harlem   [1944].wav

     Pre-gap length  0:00:02.09

     Peak level 91.2 %
     Track quality 100.0 %
     Test CRC 359116D6
     Copy CRC 359116D6
     Accurately ripped (confidence 1)  [8524CEC0]
     Copy OK

Track 17

     Filename D:\music\Musicgate's rips\Cootie Williams - Sextet And Big Band  {1941-1944} (1995)\17 - Honeysuckle Rose   [1944].wav

     Pre-gap length  0:00:02.33

     Peak level 91.2 %
     Track quality 100.0 %
     Test CRC 59ED4CE6
     Copy CRC 59ED4CE6
     Accurately ripped (confidence 1)  [B1386B99]
     Copy OK

Track 18

     Filename D:\music\Musicgate's rips\Cootie Williams - Sextet And Big Band  {1941-1944} (1995)\18 - Sweet Lorraine   [1944].wav

     Pre-gap length  0:00:02.53

     Peak level 91.9 %
     Track quality 100.0 %
     Test CRC 9D35223E
     Copy CRC 9D35223E
     Accurately ripped (confidence 1)  [620305A8]
     Copy OK

Track 19

     Filename D:\music\Musicgate's rips\Cootie Williams - Sextet And Big Band  {1941-1944} (1995)\19 - Air Mail Special   [1944].wav

     Pre-gap length  0:00:02.57

     Peak level 90.4 %
     Track quality 100.0 %
     Test CRC 95DB8800
     Copy CRC 95DB8800
     Accurately ripped (confidence 1)  [B68828B3]
     Copy OK

Track 20

     Filename D:\music\Musicgate's rips\Cootie Williams - Sextet And Big Band  {1941-1944} (1995)\20 - Roll' Em   [1944].wav

     Pre-gap length  0:00:02.33

     Peak level 90.4 %
     Track quality 99.9 %
     Test CRC A5BE06FC
     Copy CRC A5BE06FC
     Accurately ripped (confidence 1)  [C3B47D50]
     Copy OK

Track 21

     Filename D:\music\Musicgate's rips\Cootie Williams - Sextet And Big Band  {1941-1944} (1995)\21 - The Boppers   [1944].wav

     Pre-gap length  0:00:02.36

     Peak level 90.8 %
     Track quality 100.0 %
     Test CRC A61A81B8
     Copy CRC A61A81B8
     Accurately ripped (confidence 1)  [055B24FB]
     Copy OK

Track 22

     Filename D:\music\Musicgate's rips\Cootie Williams - Sextet And Big Band  {1941-1944} (1995)\22 - Somebody's Gotta Go   [1944].wav

     Pre-gap length  0:00:02.53

     Peak level 90.2 %
     Track quality 100.0 %
     Test CRC 030DB018
     Copy CRC 030DB018
     Accurately ripped (confidence 1)  [6201D97F]
     Copy OK

Track 23

     Filename D:\music\Musicgate's rips\Cootie Williams - Sextet And Big Band  {1941-1944} (1995)\23 - 'Round Midnight   [1944].wav

     Pre-gap length  0:00:02.30

     Peak level 91.4 %
     Track quality 100.0 %
     Test CRC DB99C965
     Copy CRC DB99C965
     Accurately ripped (confidence 1)  [5F59E34B]
     Copy OK

Track 24

     Filename D:\music\Musicgate's rips\Cootie Williams - Sextet And Big Band  {1941-1944} (1995)\24 - Is You Is Or Is You Ain't My Baby ї   [1944].wav

     Pre-gap length  0:00:02.40

     Peak level 91.0 %
     Track quality 100.0 %
     Test CRC 58630CDF
     Copy CRC 58630CDF
     Accurately ripped (confidence 1)  [770FAB4A]
     Copy OK

Track 25

     Filename D:\music\Musicgate's rips\Cootie Williams - Sextet And Big Band  {1941-1944} (1995)\25 - Blue Garden Blues   [1944].wav

     Pre-gap length  0:00:02.50

     Peak level 91.2 %
     Track quality 100.0 %
     Test CRC 7B1FDDC4
     Copy CRC 7B1FDDC4
     Accurately ripped (confidence 1)  [E0B81446]
     Copy OK

All tracks accurately ripped

No errors occurred

End of status report
No seeders - write personal message to M0p94ok. Any questions - support@pro-jazz.com.
Нет сидеров - пишите в личку M0p94ok. Есть вопросы - support@pro-jazz.com
20:30
89
20:31