Вы используете незарегистрированную версию компонента "Вкладки"!

Поиск

1991 Fletcher Henderson And His Orchestra - 1927-1931 {The Chronological Classics 572} [CD]

1991 Fletcher Henderson And His Orchestra - 1927-1931 {The Chronological Classics 572} [CD]
Стили:
Дата записи диска:
26 ноября 1927 - 5 февраля 1931
Издатель (лейбл):
Номер по каталогу:
CC 572
Носитель:
CD
Тип рипа:
tracks
Аудиокодек:
FLAC (*.flac)
Битрейт аудио:
lossless
Время звучания:
01:08:39
Наличие сканов:
да
Страна-производитель диска (релиза):
France
Лог создания рипа
Exact Audio Copy V1.0 beta 2 from 29. April 2011
EAC extraction logfile from 17. August 2011, 22:32
Fletcher Henderson And His Orchestra / 1927-1931
Used drive  : Optiarc DVD RW AD-7170A   Adapter: 1  ID: 0
Read mode               : Secure
Utilize accurate stream : Yes
Defeat audio cache      : Yes
Make use of C2 pointers : No
Read offset correction                      : 48
Overread into Lead-In and Lead-Out          : No
Fill up missing offset samples with silence : Yes
Delete leading and trailing silent blocks   : No
Null samples used in CRC calculations       : Yes
Used interface                              : Native Win32 interface for Win NT & 2000
Gap handling                                : Appended to previous track
Used output format              : User Defined Encoder
Selected bitrate                : 1024 kBit/s
Quality                         : High
Add ID3 tag                     : No
Command line compressor         : C:\Program Files (x86)\Exact Audio Copy\Flac\flac.exe
Additional command line options : -8 -V -T "ARTIST=%artist%" -T "TITLE=%title%" -T "ALBUM=%albumtitle%" -T "DATE=%year%" -T "TRACKNUMBER=%tracknr%" -T "GENRE=%genre%" -T "PERFORMER=%albuminterpret%" -T "COMPOSER=%composer%" %haslyrics%--tag-from-file=LYRICS
TOC of the extracted CD
     Track |   Start  |  Length  | Start sector | End sector
    ---------------------------------------------------------
        1  |  0:00.33 |  2:47.55 |        33    |    12612
        2  |  2:48.13 |  3:12.22 |     12613    |    27034
        3  |  6:00.35 |  3:08.00 |     27035    |    41134
        4  |  9:08.35 |  2:54.33 |     41135    |    54217
        5  | 12:02.68 |  3:26.15 |     54218    |    69682
        6  | 15:29.08 |  2:47.67 |     69683    |    82274
        7  | 18:17.00 |  3:27.40 |     82275    |    97839
        8  | 21:44.40 |  2:46.43 |     97840    |   110332
        9  | 24:31.08 |  2:47.07 |    110333    |   122864
       10  | 27:18.15 |  2:25.45 |    122865    |   133784
       11  | 29:43.60 |  2:54.55 |    133785    |   146889
       12  | 32:38.40 |  3:06.15 |    146890    |   160854
       13  | 35:44.55 |  3:06.65 |    160855    |   174869
       14  | 38:51.45 |  2:40.68 |    174870    |   186937
       15  | 41:32.38 |  2:57.00 |    186938    |   200212
       16  | 44:29.38 |  3:04.02 |    200213    |   214014
       17  | 47:33.40 |  3:02.63 |    214015    |   227727
       18  | 50:36.28 |  3:03.20 |    227728    |   241472
       19  | 53:39.48 |  3:21.32 |    241473    |   256579
       20  | 57:01.05 |  3:20.03 |    256580    |   271582
       21  | 60:21.08 |  3:20.62 |    271583    |   286644
       22  | 63:41.70 |  3:29.70 |    286645    |   302389
       23  | 67:11.65 |  3:23.18 |    302390    |   317632
Track  1
     Filename E:\Vuze_BitTorrent_DLs\EAC Rips\Fletcher Henderson And His Orchestra - 1927-1931 (1991) [FLAC] {Chronological Classics 572}\01 - Fletcher Henderson's Collegians - Dear, On A Night Like This.wav
     Pre-gap length  0:00:02.44
     Peak level 75.7 %
     Extraction speed 4.3 X
     Track quality 100.0 %
     Test CRC 6B0E3025
     Copy CRC 6B0E3025
     Track not present in AccurateRip database
     Copy OK
Track  2
     Filename E:\Vuze_BitTorrent_DLs\EAC Rips\Fletcher Henderson And His Orchestra - 1927-1931 (1991) [FLAC] {Chronological Classics 572}\02 - Fletcher Henderson's Collegians - There's A Rickety Rackety Shack (By A Rickety Rockety Road).wav
     Pre-gap length  0:00:02.17
     Peak level 94.9 %
     Extraction speed 4.8 X
     Track quality 100.0 %
     Test CRC 70E4E52A
     Copy CRC 70E4E52A
     Track not present in AccurateRip database
     Copy OK
Track  3
     Filename E:\Vuze_BitTorrent_DLs\EAC Rips\Fletcher Henderson And His Orchestra - 1927-1931 (1991) [FLAC] {Chronological Classics 572}\03 - Fletcher Henderson's Collegians - Sorry.wav
     Pre-gap length  0:00:02.02
     Peak level 69.3 %
     Extraction speed 5.1 X
     Track quality 100.0 %
     Test CRC 705AA243
     Copy CRC 705AA243
     Track not present in AccurateRip database
     Copy OK
Track  4
     Filename E:\Vuze_BitTorrent_DLs\EAC Rips\Fletcher Henderson And His Orchestra - 1927-1931 (1991) [FLAC] {Chronological Classics 572}\04 - Fletcher Henderson And His Orchestra - King Porter Stomp.wav
     Pre-gap length  0:00:02.36
     Peak level 94.9 %
     Extraction speed 5.3 X
     Track quality 100.0 %
     Test CRC E570484C
     Copy CRC E570484C
     Track not present in AccurateRip database
     Copy OK
Track  5
     Filename E:\Vuze_BitTorrent_DLs\EAC Rips\Fletcher Henderson And His Orchestra - 1927-1931 (1991) [FLAC] {Chronological Classics 572}\05 - Fletcher Henderson And His Orchestra - ''D'' Natural Blues.wav
     Pre-gap length  0:00:02.24
     Peak level 88.8 %
     Extraction speed 4.6 X
     Track quality 99.9 %
     Test CRC 367D8409
     Copy CRC 367D8409
     Track not present in AccurateRip database
     Copy OK
Track  6
     Filename E:\Vuze_BitTorrent_DLs\EAC Rips\Fletcher Henderson And His Orchestra - 1927-1931 (1991) [FLAC] {Chronological Classics 572}\06 - The Dixie Stompers - Oh, Baby!.wav
     Pre-gap length  0:00:02.00
     Peak level 79.4 %
     Extraction speed 5.8 X
     Track quality 100.0 %
     Test CRC 429F8D13
     Copy CRC 429F8D13
     Track not present in AccurateRip database
     Copy OK
Track  7
     Filename E:\Vuze_BitTorrent_DLs\EAC Rips\Fletcher Henderson And His Orchestra - 1927-1931 (1991) [FLAC] {Chronological Classics 572}\07 - The Dixie Stompers - Feelin' Good.wav
     Pre-gap length  0:00:02.16
     Peak level 88.6 %
     Extraction speed 6.3 X
     Track quality 100.0 %
     Test CRC 68D62762
     Copy CRC 68D62762
     Track not present in AccurateRip database
     Copy OK
Track  8
     Filename E:\Vuze_BitTorrent_DLs\EAC Rips\Fletcher Henderson And His Orchestra - 1927-1931 (1991) [FLAC] {Chronological Classics 572}\08 - The Dixie Stompers - I'm Feelin' Devilish (Oh By Golly Oh).wav
     Pre-gap length  0:00:02.46
     Peak level 70.2 %
     Extraction speed 6.3 X
     Track quality 100.0 %
     Test CRC F873145F
     Copy CRC F873145F
     Track not present in AccurateRip database
     Copy OK
Track  9
     Filename E:\Vuze_BitTorrent_DLs\EAC Rips\Fletcher Henderson And His Orchestra - 1927-1931 (1991) [FLAC] {Chronological Classics 572}\09 - Fletcher Henderson And His Orchestra - Hop Off.wav
     Pre-gap length  0:00:02.24
     Peak level 73.5 %
     Extraction speed 6.5 X
     Track quality 100.0 %
     Test CRC 8A7B2BDC
     Copy CRC 8A7B2BDC
     Track not present in AccurateRip database
     Copy OK
Track 10
     Filename E:\Vuze_BitTorrent_DLs\EAC Rips\Fletcher Henderson And His Orchestra - 1927-1931 (1991) [FLAC] {Chronological Classics 572}\10 - Henderson's Happy Six Orchestra - Old Black Joe's Blues.wav
     Pre-gap length  0:00:02.02
     Peak level 61.9 %
     Extraction speed 6.5 X
     Track quality 100.0 %
     Test CRC 9C9F0DFD
     Copy CRC 9C9F0DFD
     Track not present in AccurateRip database
     Copy OK
Track 11
     Filename E:\Vuze_BitTorrent_DLs\EAC Rips\Fletcher Henderson And His Orchestra - 1927-1931 (1991) [FLAC] {Chronological Classics 572}\11 - Fletcher Henderson And His Orchestra - Come On, Baby!.wav
     Pre-gap length  0:00:01.29
     Peak level 94.9 %
     Extraction speed 6.9 X
     Track quality 100.0 %
     Test CRC BE5CE4B5
     Copy CRC BE5CE4B5
     Track not present in AccurateRip database
     Copy OK
Track 12
     Filename E:\Vuze_BitTorrent_DLs\EAC Rips\Fletcher Henderson And His Orchestra - 1927-1931 (1991) [FLAC] {Chronological Classics 572}\12 - Fletcher Henderson And His Orchestra - Easy Money.wav
     Pre-gap length  0:00:01.69
     Peak level 87.9 %
     Extraction speed 7.2 X
     Track quality 100.0 %
     Test CRC 6C8A6C0F
     Copy CRC 6C8A6C0F
     Track not present in AccurateRip database
     Copy OK
Track 13
     Filename E:\Vuze_BitTorrent_DLs\EAC Rips\Fletcher Henderson And His Orchestra - 1927-1931 (1991) [FLAC] {Chronological Classics 572}\13 - Henderson's Roseland Orchestra - Freeze And Melt.wav
     Pre-gap length  0:00:02.29
     Peak level 75.8 %
     Extraction speed 5.7 X
     Track quality 99.9 %
     Test CRC 4230519D
     Copy CRC 4230519D
     Track not present in AccurateRip database
     Copy OK
Track 14
     Filename E:\Vuze_BitTorrent_DLs\EAC Rips\Fletcher Henderson And His Orchestra - 1927-1931 (1991) [FLAC] {Chronological Classics 572}\14 - Henderson's Roseland Orchestra - Raisin' The Roof.wav
     Pre-gap length  0:00:01.93
     Peak level 94.9 %
     Extraction speed 7.3 X
     Track quality 100.0 %
     Test CRC 2B7C5CE7
     Copy CRC 2B7C5CE7
     Track not present in AccurateRip database
     Copy OK
Track 15
     Filename E:\Vuze_BitTorrent_DLs\EAC Rips\Fletcher Henderson And His Orchestra - 1927-1931 (1991) [FLAC] {Chronological Classics 572}\15 - Fletcher Henderson And His Orchestra - Blazin'.wav
     Pre-gap length  0:00:01.64
     Peak level 94.9 %
     Extraction speed 7.7 X
     Track quality 100.0 %
     Test CRC 68BDC7C3
     Copy CRC 68BDC7C3
     Track not present in AccurateRip database
     Copy OK
Track 16
     Filename E:\Vuze_BitTorrent_DLs\EAC Rips\Fletcher Henderson And His Orchestra - 1927-1931 (1991) [FLAC] {Chronological Classics 572}\16 - Fletcher Henderson And His Orchestra - The Wang-Wang Blues.wav
     Pre-gap length  0:00:01.66
     Peak level 94.9 %
     Extraction speed 7.9 X
     Track quality 100.0 %
     Test CRC 2BFA475A
     Copy CRC 2BFA475A
     Track not present in AccurateRip database
     Copy OK
Track 17
     Filename E:\Vuze_BitTorrent_DLs\EAC Rips\Fletcher Henderson And His Orchestra - 1927-1931 (1991) [FLAC] {Chronological Classics 572}\17 - Fletcher Henderson And His Orchestra - Chinatown, My Chinatown.wav
     Pre-gap length  0:00:01.96
     Peak level 94.9 %
     Extraction speed 4.9 X
     Track quality 99.8 %
     Test CRC 004ACE65
     Copy CRC 004ACE65
     Track not present in AccurateRip database
     Copy OK
Track 18
     Filename E:\Vuze_BitTorrent_DLs\EAC Rips\Fletcher Henderson And His Orchestra - 1927-1931 (1991) [FLAC] {Chronological Classics 572}\18 - Fletcher Henderson And His Orchestra - Somebody Loves Me.wav
     Pre-gap length  0:00:01.86
     Peak level 79.9 %
     Extraction speed 6.3 X
     Track quality 99.9 %
     Test CRC 739C5DE0
     Copy CRC 739C5DE0
     Track not present in AccurateRip database
     Copy OK
Track 19
     Filename E:\Vuze_BitTorrent_DLs\EAC Rips\Fletcher Henderson And His Orchestra - 1927-1931 (1991) [FLAC] {Chronological Classics 572}\19 - Fletcher Henderson And His Orchestra - Keep A Song In Your Soul.wav
     Pre-gap length  0:00:01.86
     Peak level 90.7 %
     Extraction speed 8.4 X
     Track quality 100.0 %
     Test CRC F5DD3BAD
     Copy CRC F5DD3BAD
     Track not present in AccurateRip database
     Copy OK
Track 20
     Filename E:\Vuze_BitTorrent_DLs\EAC Rips\Fletcher Henderson And His Orchestra - 1927-1931 (1991) [FLAC] {Chronological Classics 572}\20 - Fletcher Henderson And His Orchestra - What Good Am I Without You.wav
     Pre-gap length  0:00:01.96
     Peak level 91.2 %
     Extraction speed 8.5 X
     Track quality 100.0 %
     Test CRC 5FC43BDA
     Copy CRC 5FC43BDA
     Track not present in AccurateRip database
     Copy OK
Track 21
     Filename E:\Vuze_BitTorrent_DLs\EAC Rips\Fletcher Henderson And His Orchestra - 1927-1931 (1991) [FLAC] {Chronological Classics 572}\21 - Fletcher Henderson And His Orchestra - I've Found What I Wanted In You.wav
     Pre-gap length  0:00:02.30
     Peak level 94.9 %
     Extraction speed 6.9 X
     Track quality 99.9 %
     Test CRC F1FC6909
     Copy CRC F1FC6909
     Track not present in AccurateRip database
     Copy OK
Track 22
     Filename E:\Vuze_BitTorrent_DLs\EAC Rips\Fletcher Henderson And His Orchestra - 1927-1931 (1991) [FLAC] {Chronological Classics 572}\22 - Fletcher Henderson And His Orchestra - My Gal Sal.wav
     Pre-gap length  0:00:02.09
     Peak level 94.9 %
     Extraction speed 9.0 X
     Track quality 100.0 %
     Test CRC 3769C7D9
     Copy CRC 3769C7D9
     Track not present in AccurateRip database
     Copy OK
Track 23
     Filename E:\Vuze_BitTorrent_DLs\EAC Rips\Fletcher Henderson And His Orchestra - 1927-1931 (1991) [FLAC] {Chronological Classics 572}\23 - Fletcher Henderson And His Orchestra - My pretty girl.wav
     Pre-gap length  0:00:01.89
     Peak level 93.2 %
     Extraction speed 9.3 X
     Track quality 100.0 %
     Test CRC 08891A17
     Copy CRC 08891A17
     Track not present in AccurateRip database
     Copy OK
None of the tracks are present in the AccurateRip database
No errors occurred
End of status report
==== Log checksum 1369964FC990FAB8C9A63D423818E5B8AA1E35EE321CC217204DDD56F3F0AA76 ====
Содержание индексной карты (.CUE)
REM GENRE Jazz
REM DATE 1991
REM DISCID 2F108B17
REM COMMENT "ExactAudioCopy v1.0b2"
PERFORMER "Fletcher Henderson And His Orchestra"
TITLE "1927-1931 {Chronological Classics, 572}"
FILE "01. Dear, On A Night Like This.flac" WAVE
  TRACK 01 AUDIO
    PREGAP 00:00:33
    INDEX 01 00:00:00
  TRACK 02 AUDIO
    INDEX 00 02:45:42
FILE "02. There's A Rickety Rackety Shack (By A Rickety Rockety Road).flac" WAVE
    INDEX 01 00:00:00
  TRACK 03 AUDIO
    INDEX 00 03:10:20
FILE "03. Sorry.flac" WAVE
    INDEX 01 00:00:00
  TRACK 04 AUDIO
    INDEX 00 03:05:48
FILE "04. King Porter Stomp.flac" WAVE
    INDEX 01 00:00:00
  TRACK 05 AUDIO
    INDEX 00 02:52:15
FILE "05. 'D' Natural Blues.flac" WAVE
    INDEX 01 00:00:00
  TRACK 06 AUDIO
    INDEX 00 03:24:15
FILE "06. Oh, Baby!.flac" WAVE
    INDEX 01 00:00:00
  TRACK 07 AUDIO
    INDEX 00 02:45:55
FILE "07. Feelin' Good.flac" WAVE
    INDEX 01 00:00:00
  TRACK 08 AUDIO
    INDEX 00 03:25:05
FILE "08. I'm Feelin' Devilish (Oh By Golly Oh).flac" WAVE
    INDEX 01 00:00:00
  TRACK 09 AUDIO
    INDEX 00 02:44:25
FILE "09. Hop Off.flac" WAVE
    INDEX 01 00:00:00
  TRACK 10 AUDIO
    INDEX 00 02:45:05
FILE "10. Old Black Joe's Blues.flac" WAVE
    INDEX 01 00:00:00
  TRACK 11 AUDIO
    INDEX 00 02:24:23
FILE "11. Come On, Baby!.flac" WAVE
    INDEX 01 00:00:00
  TRACK 12 AUDIO
    INDEX 00 02:53:03
FILE "12. Easy Money.flac" WAVE
    INDEX 01 00:00:00
  TRACK 13 AUDIO
    INDEX 00 03:03:68
FILE "13. Freeze And Melt.flac" WAVE
    INDEX 01 00:00:00
  TRACK 14 AUDIO
    INDEX 00 03:04:70
FILE "14. Raisin' The Roof.flac" WAVE
    INDEX 01 00:00:00
  TRACK 15 AUDIO
    INDEX 00 02:39:20
FILE "15. Blazin'.flac" WAVE
    INDEX 01 00:00:00
  TRACK 16 AUDIO
    INDEX 00 02:55:25
FILE "16. The Wang-Wang Blues.flac" WAVE
    INDEX 01 00:00:00
  TRACK 17 AUDIO
    INDEX 00 03:02:05
FILE "17. Chinatown, My Chinatown.flac" WAVE
    INDEX 01 00:00:00
  TRACK 18 AUDIO
    INDEX 00 03:00:73
FILE "18. Somebody Loves Me.flac" WAVE
    INDEX 01 00:00:00
  TRACK 19 AUDIO
    INDEX 00 03:01:30
FILE "19. Keep A Song In Your Soul.flac" WAVE
    INDEX 01 00:00:00
  TRACK 20 AUDIO
    INDEX 00 03:19:35
FILE "20. What Good Am I Without You.flac" WAVE
    INDEX 01 00:00:00
  TRACK 21 AUDIO
    INDEX 00 03:17:55
FILE "21. I've Found What I Wanted In You.flac" WAVE
    INDEX 01 00:00:00
  TRACK 22 AUDIO
    INDEX 00 03:18:55
FILE "22. My Gal Sal.flac" WAVE
    INDEX 01 00:00:00
  TRACK 23 AUDIO
    INDEX 00 03:28:03
FILE "23. My Pretty Girl.flac" WAVE
    INDEX 01 00:00:00
Any questions - support@pro-jazz.com. Есть вопросы - support@pro-jazz.com
01:02
207
Нет комментариев. Ваш будет первым!