Вы используете незарегистрированную версию компонента "Вкладки"!

Поиск

1990 Louis Armstrong And His Orchestra — 1934-1936 {The Chronological Classics 509} [CD]

1990 Louis Armstrong And His Orchestra — 1934-1936 {The Chronological Classics 509} [CD]
Стили:
Издатель (лейбл):
Номер по каталогу:
509
Доп. инфо:

Год издания диска: 1990
Аудиокодек: FLAC (*.flac)
Тип рипа: tracks+.cue
Битрейт аудио: lossless
Продолжительность: 71:53
Источник:
Наличие сканов в содержимом раздачи: да
Треклист:
 

Лог создания рипа
Exact Audio Copy V0.99 prebeta 5 from 4. May 2009
EAC extraction logfile from 19. August 2011, 14:37
LOUIS ARMSTRONG / LOUIS ARMSTRONG 1934-1936
Used drive  : Optiarc DVD RW AD-7260S   Adapter: 3  ID: 0
Read mode               : Secure
Utilize accurate stream : Yes
Defeat audio cache      : Yes
Make use of C2 pointers : No
Read offset correction                      : 48
Overread into Lead-In and Lead-Out          : No
Fill up missing offset samples with silence : Yes
Delete leading and trailing silent blocks   : No
Null samples used in CRC calculations       : Yes
Used interface                              : Native Win32 interface for Win NT & 2000
Gap handling                                : Appended to previous track
Used output format              : User Defined Encoder
Selected bitrate                : 320 kBit/s
Quality                         : High
Add ID3 tag                     : No
Command line compressor         : C:\Program Files (x86)\FLAC\flac.exe
Additional command line options : -V -8 -T "artist=%a" -T "title=%t" -T "album=%g" -T "date=%y" -T "tracknumber=%n" -T "genre=%m" %s
TOC of the extracted CD
     Track |   Start  |  Length  | Start sector | End sector
    ---------------------------------------------------------
        1  |  0:00.32 |  2:43.03 |        32    |    12259
        2  |  2:43.35 |  3:07.22 |     12260    |    26306
        3  |  5:50.57 |  2:48.50 |     26307    |    38956
        4  |  8:39.32 |  6:02.33 |     38957    |    66139
        5  | 14:41.65 |  3:06.55 |     66140    |    80144
        6  | 17:48.45 |  2:54.27 |     80145    |    93221
        7  | 20:42.72 |  3:12.45 |     93222    |   107666
        8  | 23:55.42 |  3:03.43 |    107667    |   121434
        9  | 26:59.10 |  2:44.12 |    121435    |   133746
       10  | 29:43.22 |  2:56.03 |    133747    |   146949
       11  | 32:39.25 |  2:31.70 |    146950    |   158344
       12  | 35:11.20 |  2:37.62 |    158345    |   170181
       13  | 37:49.07 |  2:56.23 |    170182    |   183404
       14  | 40:45.30 |  3:12.20 |    183405    |   197824
       15  | 43:57.50 |  3:04.12 |    197825    |   211636
       16  | 47:01.62 |  3:06.73 |    211637    |   225659
       17  | 50:08.60 |  2:39.32 |    225660    |   237616
       18  | 52:48.17 |  3:19.70 |    237617    |   252611
       19  | 56:08.12 |  3:01.28 |    252612    |   266214
       20  | 59:09.40 |  3:19.35 |    266215    |   281174
       21  | 62:29.00 |  3:19.25 |    281175    |   296124
       22  | 65:48.25 |  3:05.45 |    296125    |   310044
       23  | 68:53.70 |  2:59.70 |    310045    |   323539
Track  1
     Filename E:\Rips\01 - ST. LOUIS BLUES.wav
     Pre-gap length  0:00:02.42
     Peak level 82.4 %
     Track quality 99.9 %
     Test CRC C80DB3E2
     Copy CRC C80DB3E2
     Accurately ripped (confidence 3)  [72B9A88C]
     Copy OK
Track  2
     Filename E:\Rips\02 - TIGER RAG.wav
     Pre-gap length  0:00:01.24
     Peak level 84.2 %
     Track quality 99.9 %
     Test CRC C4996DF5
     Copy CRC C4996DF5
     Accurately ripped (confidence 3)  [8BB709F7]
     Copy OK
Track  3
     Filename E:\Rips\03 - WILL YOU, WONT TOU BE MY BABY .wav
     Pre-gap length  0:00:01.16
     Peak level 78.2 %
     Track quality 99.9 %
     Test CRC 11DD8D49
     Copy CRC 11DD8D49
     Accurately ripped (confidence 3)  [28CE1357]
     Copy OK
Track  4
     Filename E:\Rips\04 - ON THE SUNNY SIDE OF THE STREET.wav
     Pre-gap length  0:00:01.22
     Peak level 76.1 %
     Track quality 100.0 %
     Test CRC EC486737
     Copy CRC EC486737
     Accurately ripped (confidence 3)  [54243BCB]
     Copy OK
Track  5
     Filename E:\Rips\05 - ST. LOUIS BLUES.wav
     Pre-gap length  0:00:01.24
     Peak level 89.0 %
     Track quality 100.0 %
     Test CRC 9FF02376
     Copy CRC 9FF02376
     Accurately ripped (confidence 3)  [5E916ED1]
     Copy OK
Track  6
     Filename E:\Rips\06 - SONG OF THE VIPERS.wav
     Pre-gap length  0:00:00.93
     Peak level 87.7 %
     Track quality 100.0 %
     Test CRC A32CBAD7
     Copy CRC A32CBAD7
     Accurately ripped (confidence 3)  [EBA245B2]
     Copy OK
Track  7
     Filename E:\Rips\07 - I'M IN THE MOOD FOR LOVE.wav
     Pre-gap length  0:00:00.93
     Peak level 84.0 %
     Track quality 99.9 %
     Test CRC DC905992
     Copy CRC DC905992
     Accurately ripped (confidence 3)  [3EB22A08]
     Copy OK
Track  8
     Filename E:\Rips\08 - YOU ARE MY LUCKY STAR.wav
     Pre-gap length  0:00:01.06
     Peak level 78.6 %
     Track quality 100.0 %
     Test CRC 98366104
     Copy CRC 98366104
     Accurately ripped (confidence 3)  [5FC37FDD]
     Copy OK
Track  9
     Filename E:\Rips\09 - LA CUCARACA.wav
     Pre-gap length  0:00:01.30
     Peak level 69.3 %
     Track quality 100.0 %
     Test CRC 08CCACF8
     Copy CRC 08CCACF8
     Accurately ripped (confidence 3)  [9E6D1DC0]
     Copy OK
Track 10
     Filename E:\Rips\10 - GOT A BRAN' NEW SUIT.wav
     Pre-gap length  0:00:00.02
     Peak level 76.8 %
     Track quality 100.0 %
     Test CRC BCE50CA8
     Copy CRC BCE50CA8
     Accurately ripped (confidence 3)  [835FCC8E]
     Copy OK
Track 11
     Filename E:\Rips\11 - I'VE GOT MY FINGERS CROSSED.wav
     Pre-gap length  0:00:01.40
     Peak level 82.6 %
     Track quality 100.0 %
     Test CRC 0EC659B3
     Copy CRC 0EC659B3
     Accurately ripped (confidence 3)  [D98E9CF5]
     Copy OK
Track 12
     Filename E:\Rips\12 - OL' MAN MOSE.wav
     Pre-gap length  0:00:00.97
     Peak level 73.5 %
     Track quality 100.0 %
     Test CRC 118FCE2E
     Copy CRC 118FCE2E
     Accurately ripped (confidence 3)  [87093A54]
     Copy OK
Track 13
     Filename E:\Rips\13 - I' SHOOTING HIGH.wav
     Pre-gap length  0:00:02.80
     Peak level 74.3 %
     Track quality 99.9 %
     Test CRC F934191D
     Copy CRC F934191D
     Accurately ripped (confidence 3)  [EC05EB64]
     Copy OK
Track 14
     Filename E:\Rips\14 - (WAS I TO BLAME FOR) FALLING IN LOVE WITH YOU.wav
     Pre-gap length  0:00:01.33
     Peak level 82.3 %
     Track quality 99.9 %
     Test CRC 73E94410
     Copy CRC 73E94410
     Accurately ripped (confidence 3)  [7499988B]
     Copy OK
Track 15
     Filename E:\Rips\15 - RED SAILS IN THE SUNSET.wav
     Pre-gap length  0:00:01.30
     Peak level 83.3 %
     Track quality 100.0 %
     Test CRC 3F54E54C
     Copy CRC 3F54E54C
     Accurately ripped (confidence 3)  [20C4EF1E]
     Copy OK
Track 16
     Filename E:\Rips\16 - ON TREASURE ISLAND.wav
     Pre-gap length  0:00:01.36
     Peak level 81.3 %
     Track quality 99.9 %
     Test CRC CF7AA4F5
     Copy CRC CF7AA4F5
     Accurately ripped (confidence 3)  [DE8D44B3]
     Copy OK
Track 17
     Filename E:\Rips\17 - THANKS A MILLION.wav
     Pre-gap length  0:00:01.10
     Peak level 70.2 %
     Track quality 100.0 %
     Test CRC 2E5AA625
     Copy CRC 2E5AA625
     Accurately ripped (confidence 3)  [64BC6F88]
     Copy OK
Track 18
     Filename E:\Rips\18 - SHOE SHINE BOY.wav
     Pre-gap length  0:00:01.36
     Peak level 74.2 %
     Track quality 100.0 %
     Test CRC 100A523A
     Copy CRC 100A523A
     Accurately ripped (confidence 3)  [5FB184B4]
     Copy OK
Track 19
     Filename E:\Rips\19 - SOLITUDE.wav
     Pre-gap length  0:00:01.40
     Peak level 86.3 %
     Track quality 100.0 %
     Test CRC DC4494A4
     Copy CRC DC4494A4
     Accurately ripped (confidence 3)  [5D6538F8]
     Copy OK
Track 20
     Filename E:\Rips\20 - I HOPE GABRIEL LIKES MY MUSIC.wav
     Pre-gap length  0:00:01.33
     Peak level 69.0 %
     Track quality 100.0 %
     Test CRC 726DE7B7
     Copy CRC 726DE7B7
     Accurately ripped (confidence 3)  [339F7ABE]
     Copy OK
Track 21
     Filename E:\Rips\21 - THE MUSIC GOES 'ROUND AND AROUND.wav
     Pre-gap length  0:00:01.20
     Peak level 86.3 %
     Track quality 100.0 %
     Test CRC C88D2FB5
     Copy CRC C88D2FB5
     Accurately ripped (confidence 3)  [75E26F10]
     Copy OK
Track 22
     Filename E:\Rips\22 - RHYTHM SAVED THE WORLD.wav
     Pre-gap length  0:00:01.26
     Peak level 79.3 %
     Track quality 99.9 %
     Test CRC CD692E59
     Copy CRC CD692E59
     Accurately ripped (confidence 3)  [E7826F33]
     Copy OK
Track 23
     Filename E:\Rips\23 - I'M PUTTING ALL MY EGGS ON ONE BASKET.wav
     Pre-gap length  0:00:01.40
     Peak level 71.1 %
     Track quality 100.0 %
     Test CRC 2124A1B4
     Copy CRC 2124A1B4
     Accurately ripped (confidence 3)  [D303F907]
     Copy OK
All tracks accurately ripped
No errors occurred
End of status report
Содержание индексной карты (.CUE)
REM GENRE Jazz
REM DISCID 2510D917
REM COMMENT "ExactAudioCopy v0.99pb5"
FILE "01. St. Louis Blues.flac" WAVE
  TRACK 01 AUDIO
    PREGAP 00:00:32
    INDEX 01 00:00:00
  TRACK 02 AUDIO
    INDEX 00 02:41:60
FILE "02. Tiger Rag.flac" WAVE
    INDEX 01 00:00:00
  TRACK 03 AUDIO
    INDEX 00 03:06:10
FILE "03. Will You, Wont Tou Be My Baby.flac" WAVE
    INDEX 01 00:00:00
  TRACK 04 AUDIO
    INDEX 00 02:47:33
FILE "04. On The Sunny Side Of The Street.flac" WAVE
    INDEX 01 00:00:00
  TRACK 05 AUDIO
    INDEX 00 06:01:15
FILE "05. St. Louis Blues.flac" WAVE
    INDEX 01 00:00:00
  TRACK 06 AUDIO
    INDEX 00 03:05:60
FILE "06. Song Of The Vipers.flac" WAVE
    INDEX 01 00:00:00
  TRACK 07 AUDIO
    INDEX 00 02:53:32
FILE "07. I'm In The Mood For Love.flac" WAVE
    INDEX 01 00:00:00
  TRACK 08 AUDIO
    INDEX 00 03:11:40
FILE "08. You Are My Lucky Star.flac" WAVE
    INDEX 01 00:00:00
  TRACK 09 AUDIO
    INDEX 00 03:02:20
FILE "09. La Cucaracha.flac" WAVE
    INDEX 01 00:00:00
  TRACK 10 AUDIO
    INDEX 00 02:44:10
FILE "10. Got A Bran' New Suit.flac" WAVE
    INDEX 01 00:00:00
  TRACK 11 AUDIO
    INDEX 00 02:54:48
FILE "11. I've Got My Fingers Crossed.flac" WAVE
    INDEX 01 00:00:00
  TRACK 12 AUDIO
    INDEX 00 02:30:72
FILE "12. Ol' Man Mose.flac" WAVE
    INDEX 01 00:00:00
  TRACK 13 AUDIO
    INDEX 00 02:35:02
FILE "13. I'm Shooting High.flac" WAVE
    INDEX 01 00:00:00
  TRACK 14 AUDIO
    INDEX 00 02:54:73
FILE "14. (Was I To Blame For) Falling In Love With You.flac" WAVE
    INDEX 01 00:00:00
  TRACK 15 AUDIO
    INDEX 00 03:10:72
FILE "15. Red Sails In The Sunset.flac" WAVE
    INDEX 01 00:00:00
  TRACK 16 AUDIO
    INDEX 00 03:02:60
FILE "16. On Treasure Island.flac" WAVE
    INDEX 01 00:00:00
  TRACK 17 AUDIO
    INDEX 00 03:05:65
FILE "17. Thanks A Million.flac" WAVE
    INDEX 01 00:00:00
  TRACK 18 AUDIO
    INDEX 00 02:38:05
FILE "18. Shoe Shine Boy.flac" WAVE
    INDEX 01 00:00:00
  TRACK 19 AUDIO
    INDEX 00 03:18:40
FILE "19. Solitude.flac" WAVE
    INDEX 01 00:00:00
  TRACK 20 AUDIO
    INDEX 00 03:00:03
FILE "20. I Hope Gabriel Likes My Music.flac" WAVE
    INDEX 01 00:00:00
  TRACK 21 AUDIO
    INDEX 00 03:18:20
FILE "21. The Music Goes 'Round And Around.flac" WAVE
    INDEX 01 00:00:00
  TRACK 22 AUDIO
    INDEX 00 03:18:05
FILE "22. Rhythm Saved The World.flac" WAVE
    INDEX 01 00:00:00
  TRACK 23 AUDIO
    INDEX 00 03:04:15
FILE "23. I'm Putting All My Eggs On One Basket.flac" WAVE
    INDEX 01 00:00:00
Any questions - support@pro-jazz.com. Есть вопросы - support@pro-jazz.com
01:01
288
Нет комментариев. Ваш будет первым!