Поиск

1991 Count Basie And His Orchestra - 1940-1941 {The Chronological Classics 623} [CD]

1991 Count Basie And His Orchestra - 1940-1941 {The Chronological Classics 623} [CD]
Стили:
Дата записи диска:
19 ноября 1940 - 10 апреля 1941
Издатель (лейбл):
Номер по каталогу:
CC 623
Носитель:
CD
Тип рипа:
tracks+.cue
Аудиокодек:
FLAC (*.flac)
Битрейт аудио:
lossless
Время звучания:
01:10:38
Наличие сканов:
да
Треклист:

01. Five O'Clock Whistle (3:04)
02. Love Jumped Out (3:13)
03. My Wanderin' Man (3:08)
04. Broadway (2:59)
05. It's the Same Old South (3:07)
06. Stampede in G minor (2:46)
07. Who Am I? (2:50)
08. Rockin' the Blues (3:11)
09. It's Square But It Rocks (2:29)
10. I'll Forget (2:45)
11. You Lied to Me (2:43)
12. Wiggle Woogie (2:41)
13. Beau Brummel (3:12)
14. Music Makers (2:44)
15. Jump the Blues Away (3:01)
16. Deep in the Blues (3:08)
17. The Jitters (2:46)
18. Tuesday at Ten (2:59)
19. Undecided Blues (2:57)
20. I Do Mean You (2:48)
21. 9.20 Special (3:09)
22. H and J (2:35)
23. Feedin' the Bean (3:13)
24. Goin' to Chicago Blues (3:21)

Состав:
  • Paul Bascomb     Sax (Tenor)
  • Count Basie     Arranger, Composer, Director, Piano
  • Dudley Brooks     Arranger
  • Don Byas     Sax (Tenor)
  • Buck Clayton     Arranger, Composer, Trumpet
  • Ed Cuffee     Trombone
  • Vic Dickenson     Trombone
  • Harry "Sweets" Edison     Composer, Trumpet
  • Freddie Green     Guitar
  • Buster Harding     Arranger
  • Coleman Hawkins     Sax (Tenor)
  • Helen Humes     Arranger, Vocals
  • Jo Jones     Drums
  • Al Killian     Trumpet
  • Ed Lewis     Trumpet
  • Skip Martin     Arranger, Composer
  • Dan Minor     Trombone
  • Jimmy Mundy     Arranger
  • Walter Page     String Bass
  • Don Redman     Arranger
  • Jimmy Rushing     Composer, Vocals
  • Anatol Schenker     Liner Notes
  • Tab Smith     Composer, Sax (Alto), Sax (Soprano)
  • Buddy Tate     Sax (Tenor)
  • Earle Warren     Composer, Sax (Alto)
  • Jack Washington     Sax (Alto), Sax (Baritone)
  • Dicky Wells     Trombone
  • Henri Woode     Arranger
  • Lester Young     Sax (Tenor)
Лог создания рипа
Exact Audio Copy V1.0 beta 2 from 29. April 2011
EAC extraction logfile from 14. July 2011, 21:11
Count Basie And His Orchestra / 1940-1941
Used drive  : Optiarc DVD RW AD-7240S   Adapter: 4  ID: 0
Read mode               : Secure
Utilize accurate stream : Yes
Defeat audio cache      : Yes
Make use of C2 pointers : No
Read offset correction                      : 48
Overread into Lead-In and Lead-Out          : No
Fill up missing offset samples with silence : Yes
Delete leading and trailing silent blocks   : No
Null samples used in CRC calculations       : Yes
Used interface                              : Native Win32 interface for Win NT & 2000
Gap handling                                : Appended to previous track
Used output format              : User Defined Encoder
Selected bitrate                : 1024 kBit/s
Quality                         : High
Add ID3 tag                     : No
Command line compressor         : C:\Program Files (x86)\Exact Audio Copy\Flac\flac.exe
Additional command line options : -V -8 -T "artist=%artist%" -T "title=%title%" -T "album=%albumtitle%" -T "date=%year%" -T "tracknumber=%tracknr%" -T "genre=%genre%" %source%
TOC of the extracted CD
     Track |   Start  |  Length  | Start sector | End sector
    ---------------------------------------------------------
        1  |  0:00.33 |  3:04.15 |        33    |    13847
        2  |  3:04.48 |  3:13.00 |     13848    |    28322
        3  |  6:17.48 |  3:08.30 |     28323    |    42452
        4  |  9:26.03 |  2:58.70 |     42453    |    55872
        5  | 12:24.73 |  3:07.05 |     55873    |    69902
        6  | 15:32.03 |  2:46.37 |     69903    |    82389
        7  | 18:18.40 |  2:50.20 |     82390    |    95159
        8  | 21:08.60 |  3:10.45 |     95160    |   109454
        9  | 24:19.30 |  2:29.03 |    109455    |   120632
       10  | 26:48.33 |  2:44.50 |    120633    |   132982
       11  | 29:33.08 |  2:43.12 |    132983    |   145219
       12  | 32:16.20 |  2:40.40 |    145220    |   157259
       13  | 34:56.60 |  3:11.63 |    157260    |   171647
       14  | 38:08.48 |  2:43.55 |    171648    |   183927
       15  | 40:52.28 |  3:00.40 |    183928    |   197467
       16  | 43:52.68 |  3:08.17 |    197468    |   211584
       17  | 47:01.10 |  2:45.45 |    211585    |   224004
       18  | 49:46.55 |  2:58.40 |    224005    |   237394
       19  | 52:45.20 |  2:56.63 |    237395    |   250657
       20  | 55:42.08 |  2:48.17 |    250658    |   263274
       21  | 58:30.25 |  3:09.05 |    263275    |   277454
       22  | 61:39.30 |  2:35.13 |    277455    |   289092
       23  | 64:14.43 |  3:13.00 |    289093    |   303567
       24  | 67:27.43 |  3:20.65 |    303568    |   318632
Track  1
     Filename D:\Music\Count Basie - 1940-1941\01 - Five O'clock Whistle.wav
     Pre-gap length  0:00:02.33
     Peak level 97.4 %
     Extraction speed 2.3 X
     Track quality 100.0 %
     Test CRC EA38EF32
     Copy CRC EA38EF32
     Accurately ripped (confidence 3)  [6275DEDB]  (AR v1)
     Copy OK
Track  2
     Filename D:\Music\Count Basie - 1940-1941\02 - Love Jumped Out.wav
     Pre-gap length  0:00:02.18
     Peak level 72.5 %
     Extraction speed 2.5 X
     Track quality 100.0 %
     Test CRC 9B493BB5
     Copy CRC 9B493BB5
     Accurately ripped (confidence 3)  [977218D2]  (AR v1)
     Copy OK
Track  3
     Filename D:\Music\Count Basie - 1940-1941\03 - My Wanderin' Man.wav
     Pre-gap length  0:00:02.28
     Peak level 62.4 %
     Extraction speed 2.7 X
     Track quality 100.0 %
     Test CRC 727E20BB
     Copy CRC 727E20BB
     Accurately ripped (confidence 3)  [CCBC9298]  (AR v1)
     Copy OK
Track  4
     Filename D:\Music\Count Basie - 1940-1941\04 - Broadway.wav
     Pre-gap length  0:00:03.03
     Peak level 92.5 %
     Extraction speed 2.4 X
     Track quality 99.9 %
     Test CRC C2C5CFD2
     Copy CRC C2C5CFD2
     Accurately ripped (confidence 3)  [611B4837]  (AR v1)
     Copy OK
Track  5
     Filename D:\Music\Count Basie - 1940-1941\05 - It's The Same Old South.wav
     Pre-gap length  0:00:02.63
     Peak level 88.7 %
     Extraction speed 3.0 X
     Track quality 100.0 %
     Test CRC 06629190
     Copy CRC 06629190
     Accurately ripped (confidence 3)  [FD47E4B3]  (AR v1)
     Copy OK
Track  6
     Filename D:\Music\Count Basie - 1940-1941\06 - Stampede In G Minor.wav
     Pre-gap length  0:00:02.50
     Peak level 84.5 %
     Extraction speed 3.1 X
     Track quality 100.0 %
     Test CRC EAE01A4C
     Copy CRC EAE01A4C
     Accurately ripped (confidence 3)  [2E1C6059]  (AR v1)
     Copy OK
Track  7
     Filename D:\Music\Count Basie - 1940-1941\07 - Who Am I.wav
     Pre-gap length  0:00:02.65
     Peak level 76.2 %
     Extraction speed 3.2 X
     Track quality 100.0 %
     Test CRC AE91F6D2
     Copy CRC AE91F6D2
     Accurately ripped (confidence 3)  [71893F4A]  (AR v1)
     Copy OK
Track  8
     Filename D:\Music\Count Basie - 1940-1941\08 - Rockin' The Blues.wav
     Pre-gap length  0:00:02.30
     Peak level 85.9 %
     Extraction speed 3.4 X
     Track quality 100.0 %
     Test CRC 9611FA57
     Copy CRC 9611FA57
     Accurately ripped (confidence 3)  [EDEE5F69]  (AR v1)
     Copy OK
Track  9
     Filename D:\Music\Count Basie - 1940-1941\09 - It's Square But It Rocks.wav
     Pre-gap length  0:00:02.52
     Peak level 83.4 %
     Extraction speed 2.8 X
     Track quality 99.9 %
     Test CRC 71D2B341
     Copy CRC 71D2B341
     Accurately ripped (confidence 3)  [F3BF7E80]  (AR v1)
     Copy OK
Track 10
     Filename D:\Music\Count Basie - 1940-1941\10 - I'll Forget.wav
     Pre-gap length  0:00:02.45
     Peak level 72.5 %
     Extraction speed 3.0 X
     Track quality 99.9 %
     Test CRC 593672B4
     Copy CRC 593672B4
     Accurately ripped (confidence 3)  [E8A7D05D]  (AR v1)
     Copy OK
Track 11
     Filename D:\Music\Count Basie - 1940-1941\11 - You Lied To Me.wav
     Pre-gap length  0:00:02.38
     Peak level 91.6 %
     Extraction speed 3.6 X
     Track quality 100.0 %
     Test CRC 0361FEFD
     Copy CRC 0361FEFD
     Accurately ripped (confidence 2)  [6F34628A]  (AR v1)
     Copy OK
Track 12
     Filename D:\Music\Count Basie - 1940-1941\12 - Wiggle Woogie.wav
     Pre-gap length  0:00:02.55
     Peak level 92.7 %
     Extraction speed 3.7 X
     Track quality 100.0 %
     Test CRC 39FED207
     Copy CRC 39FED207
     Accurately ripped (confidence 3)  [85260FBD]  (AR v1)
     Copy OK
Track 13
     Filename D:\Music\Count Basie - 1940-1941\13 - Beau Brummel.wav
     Pre-gap length  0:00:02.47
     Peak level 77.0 %
     Extraction speed 3.9 X
     Track quality 100.0 %
     Test CRC 86CE79BB
     Copy CRC 86CE79BB
     Accurately ripped (confidence 3)  [3364501B]  (AR v1)
     Copy OK
Track 14
     Filename D:\Music\Count Basie - 1940-1941\14 - Music Makers.wav
     Pre-gap length  0:00:02.23
     Peak level 96.7 %
     Extraction speed 4.0 X
     Track quality 100.0 %
     Test CRC 47E5F0E4
     Copy CRC 47E5F0E4
     Accurately ripped (confidence 3)  [DDBDB0B4]  (AR v1)
     Copy OK
Track 15
     Filename D:\Music\Count Basie - 1940-1941\15 - Jump The Blues Away.wav
     Pre-gap length  0:00:01.08
     Peak level 68.3 %
     Extraction speed 4.1 X
     Track quality 100.0 %
     Test CRC AAC01D4C
     Copy CRC AAC01D4C
     Accurately ripped (confidence 3)  [95F2E07C]  (AR v1)
     Copy OK
Track 16
     Filename D:\Music\Count Basie - 1940-1941\16 - Deep In The Blues.wav
     Pre-gap length  0:00:01.28
     Peak level 55.0 %
     Extraction speed 3.6 X
     Track quality 99.9 %
     Test CRC 3BDDAE86
     Copy CRC 3BDDAE86
     Accurately ripped (confidence 3)  [386B7E56]  (AR v1)
     Copy OK
Track 17
     Filename D:\Music\Count Basie - 1940-1941\17 - The Jitters.wav
     Pre-gap length  0:00:01.32
     Peak level 79.4 %
     Extraction speed 4.2 X
     Track quality 100.0 %
     Test CRC E2017E6E
     Copy CRC E2017E6E
     Accurately ripped (confidence 3)  [5A997B95]  (AR v1)
     Copy OK
Track 18
     Filename D:\Music\Count Basie - 1940-1941\18 - Tuesday At Ten.wav
     Pre-gap length  0:00:01.20
     Peak level 86.4 %
     Extraction speed 4.4 X
     Track quality 100.0 %
     Test CRC F8115C6F
     Copy CRC F8115C6F
     Accurately ripped (confidence 3)  [AC631D2A]  (AR v1)
     Copy OK
Track 19
     Filename D:\Music\Count Basie - 1940-1941\19 - Undecided Blues.wav
     Pre-gap length  0:00:01.35
     Peak level 64.9 %
     Extraction speed 4.5 X
     Track quality 100.0 %
     Test CRC 6920E821
     Copy CRC 6920E821
     Accurately ripped (confidence 3)  [D4EFD0A2]  (AR v1)
     Copy OK
Track 20
     Filename D:\Music\Count Basie - 1940-1941\20 - I Do Mean You.wav
     Pre-gap length  0:00:01.50
     Peak level 83.7 %
     Extraction speed 4.5 X
     Track quality 100.0 %
     Test CRC EC690BE1
     Copy CRC EC690BE1
     Accurately ripped (confidence 3)  [2497A7BF]  (AR v1)
     Copy OK
Track 21
     Filename D:\Music\Count Basie - 1940-1941\21 - 9.20 Special.wav
     Pre-gap length  0:00:01.40
     Peak level 76.5 %
     Extraction speed 4.7 X
     Track quality 100.0 %
     Test CRC 4D983151
     Copy CRC 4D983151
     Accurately ripped (confidence 3)  [5818DCCE]  (AR v1)
     Copy OK
Track 22
     Filename D:\Music\Count Basie - 1940-1941\22 - H And J.wav
     Pre-gap length  0:00:01.27
     Peak level 71.3 %
     Extraction speed 4.7 X
     Track quality 100.0 %
     Test CRC C41F2B61
     Copy CRC C41F2B61
     Accurately ripped (confidence 3)  [C613BEF6]  (AR v1)
     Copy OK
Track 23
     Filename D:\Music\Count Basie - 1940-1941\23 - Feedin' The Bean.wav
     Pre-gap length  0:00:01.25
     Peak level 75.4 %
     Extraction speed 4.9 X
     Track quality 100.0 %
     Test CRC EE119637
     Copy CRC EE119637
     Accurately ripped (confidence 3)  [0AE436CD]  (AR v1)
     Copy OK
Track 24
     Filename D:\Music\Count Basie - 1940-1941\24 - Going To Chicago Blues.wav
     Pre-gap length  0:00:01.48
     Peak level 94.1 %
     Extraction speed 4.4 X
     Track quality 99.9 %
     Test CRC 8DF2401F
     Copy CRC 8DF2401F
     Accurately ripped (confidence 3)  [CBC9E131]  (AR v1)
     Copy OK
All tracks accurately ripped
No errors occurred
End of status report
==== Log checksum 279BF3FC4D640F4A1E8FE62D5749D6930E71C6F4109ADB1B86F238FEFE8E2F85 ====
По всем вопросам пишите личное сообщение пользователю M0p94ok.
17:58
168
Нет комментариев. Ваш будет первым!