Поиск

1987 - 2007 Acoustic Alchemy - Collection (17CD)

1987 - 2007 Acoustic Alchemy - Collection (17CD)
Стили:
Страна-производитель диска (релиза):
Germany, USA, EU.
Дата издания диска:
1987 - 2007
Носитель:
CD
Битрейт аудио:
lossless
Аудиокодек:
WavPack (*.wv)
Тип рипа:
image+.cue
Время звучания:
14:55:20
Релизёр (источник):
In-Valid
Треклист:
CD "Red Dust & Spanish Lace" GRD-9833 [1987], USA

01. Mr. Chow (3:06)
02. Ricochet (3:20)
03. The Stone Circle (4:16)
04. The Rideout (3:33)
05. Girl With A Red Carnation (3:07)
06. The Colonel And The Ashes (3:24)
07. One For The Road (6:23)
08. Sarah Victoria (2:19)
09. Red Dust And Spanish Lace (8:47)

EAC Log


Exact Audio Copy V0.99 prebeta 5 from 4. May 2009
EAC extraction logfile from 4. December 2009, 21:59
Acoustic Alchemy / Red Dust and Spanish Lace
Used drive  : HL-DT-STDVDRAM GH22NS50   Adapter: 3  ID: 1
Read mode               : Secure
Utilize accurate stream : Yes
Defeat audio cache      : Yes
Make use of C2 pointers : No
Read offset correction                      : 667
Overread into Lead-In and Lead-Out          : No
Fill up missing offset samples with silence : Yes
Delete leading and trailing silent blocks   : No
Null samples used in CRC calculations       : Yes
Used interface                              : Installed external ASPI interface
Used output format              : User Defined Encoder
Selected bitrate                : 128 kBit/s
Quality                         : High
Add ID3 tag                     : No
Command line compressor         : D:\Tools\Codecs\WavPack Frontend 2.0\wavpack.exe
Additional command line options : -h %s %d
TOC of the extracted CD
     Track |   Start  |  Length  | Start sector | End sector
    ---------------------------------------------------------
        1  |  0:00.00 |  3:08.07 |         0    |    14106
        2  |  3:08.07 |  3:21.05 |     14107    |    29186
        3  |  6:29.12 |  4:18.33 |     29187    |    48569
        4  | 10:47.45 |  3:39.65 |     48570    |    65059
        5  | 14:27.35 |  3:08.02 |     65060    |    79161
        6  | 17:35.37 |  3:26.08 |     79162    |    94619
        7  | 21:01.45 |  6:25.15 |     94620    |   123509
        8  | 27:26.60 |  2:20.05 |    123510    |   134014
        9  | 29:46.65 |  8:46.52 |    134015    |   173516
Range status and errors
Selected range
     Filename F:\EAC\Acoustic Alchemy\Red Dust and Spanish Lace (1987)\Acoustic Alchemy - Red Dust and Spanish Lace.wav
     Peak level 96.4 %
     Range quality 100.0 %
     Test CRC 6CB1B6B1
     Copy CRC 6CB1B6B1
     Copy OK
No errors occurred
AccurateRip summary
Track  1  accurately ripped (confidence 3)  [849C3ECD]
Track  2  accurately ripped (confidence 3)  [DF779E26]
Track  3  accurately ripped (confidence 3)  [E9E0E8BE]
Track  4  accurately ripped (confidence 3)  [191B002B]
Track  5  accurately ripped (confidence 3)  [AE0D1470]
Track  6  accurately ripped (confidence 3)  [023D9FEE]
Track  7  accurately ripped (confidence 3)  [15A7771E]
Track  8  accurately ripped (confidence 3)  [370C8944]
Track  9  accurately ripped (confidence 3)  [23575C5A]
All tracks accurately ripped
End of status report
CD "Natural Elements" GRD-9834 [1988], USA

01. Drake's Drum (4:40)
02. Overnight Sleeper (3:35)
03. Natural Elements (3:45)
04. Casino (3:50)
05. If Only (5:10)
06. Ballad For Kay (3:45)
07. Evil The Weasel (5:40)
08. Late Night Duke Street (4:40)

EAC Log


Exact Audio Copy V0.99 prebeta 5 from 4. May 2009
EAC extraction logfile from 6. December 2009, 21:40
Acoustic Alchemy / Natural Elements
Used drive  : HL-DT-STDVDRAM GH22NS50   Adapter: 3  ID: 1
Read mode               : Secure
Utilize accurate stream : Yes
Defeat audio cache      : Yes
Make use of C2 pointers : No
Read offset correction                      : 667
Overread into Lead-In and Lead-Out          : No
Fill up missing offset samples with silence : Yes
Delete leading and trailing silent blocks   : No
Null samples used in CRC calculations       : Yes
Used interface                              : Installed external ASPI interface
Used output format              : User Defined Encoder
Selected bitrate                : 128 kBit/s
Quality                         : High
Add ID3 tag                     : No
Command line compressor         : D:\Tools\Codecs\WavPack Frontend 2.0\wavpack.exe
Additional command line options : -h %s %d
TOC of the extracted CD
     Track |   Start  |  Length  | Start sector | End sector
    ---------------------------------------------------------
        1  |  0:00.00 |  4:49.12 |         0    |    21686
        2  |  4:49.12 |  3:39.73 |     21687    |    38184
        3  |  8:29.10 |  3:55.70 |     38185    |    55879
        4  | 12:25.05 |  3:51.05 |     55880    |    73209
        5  | 16:16.10 |  5:17.15 |     73210    |    96999
        6  | 21:33.25 |  2:59.67 |     97000    |   110491
        7  | 24:33.17 |  5:37.68 |    110492    |   135834
        8  | 30:11.10 |  4:46.62 |    135835    |   157346
Range status and errors
Selected range
     Filename F:\EAC\Acoustic Alchemy\Natural Elements (1988)\Acoustic Alchemy - Natural Elements.wav
     Peak level 98.0 %
     Range quality 100.0 %
     Test CRC D3234F84
     Copy CRC D3234F84
     Copy OK
No errors occurred
AccurateRip summary
Track  1  accurately ripped (confidence 2)  [8D1E187B]
Track  2  accurately ripped (confidence 2)  [7FF14485]
Track  3  accurately ripped (confidence 2)  [4B8EA1EF]
Track  4  accurately ripped (confidence 2)  [226B0D24]
Track  5  accurately ripped (confidence 2)  [2AF966C3]
Track  6  accurately ripped (confidence 2)  [AC4D5CEC]
Track  7  accurately ripped (confidence 2)  [22D7ACEB]
Track  8  accurately ripped (confidence 2)  [D8444F2F]
All tracks accurately ripped
End of status report
CD "Blue Chip" GRP 01402 [1989], Germany

01. Catalina Kiss (4:33)
02. The Blue Chip Bop (3:41)
03. Making Waves (4:51)
04. With You In Mind (3:58)
05. Bright Tiger (4:47)
06. Ariane (4:53)
07. Highland (4:42)
08. Boulder Coaster (5:26)
09. Hearts In Chains (3:29)
10. No More Nachos (Por Favor) (3:34)

EAC Log


Exact Audio Copy V0.99 prebeta 5 from 4. May 2009
EAC extraction logfile from 6. December 2009, 22:19
Acoustic Alchemy / Blue Chip
Used drive  : HL-DT-STDVDRAM GH22NS50   Adapter: 3  ID: 1
Read mode               : Secure
Utilize accurate stream : Yes
Defeat audio cache      : Yes
Make use of C2 pointers : No
Read offset correction                      : 667
Overread into Lead-In and Lead-Out          : No
Fill up missing offset samples with silence : Yes
Delete leading and trailing silent blocks   : No
Null samples used in CRC calculations       : Yes
Used interface                              : Installed external ASPI interface
Used output format              : User Defined Encoder
Selected bitrate                : 128 kBit/s
Quality                         : High
Add ID3 tag                     : No
Command line compressor         : D:\Tools\Codecs\WavPack Frontend 2.0\wavpack.exe
Additional command line options : -h %s %d
TOC of the extracted CD
     Track |   Start  |  Length  | Start sector | End sector
    ---------------------------------------------------------
        1  |  0:00.33 |  4:36.65 |        33    |    20797
        2  |  4:37.23 |  3:43.60 |     20798    |    37582
        3  |  8:21.08 |  4:54.42 |     37583    |    59674
        4  | 13:15.50 |  4:01.20 |     59675    |    77769
        5  | 17:16.70 |  4:49.38 |     77770    |    99482
        6  | 22:06.33 |  4:56.02 |     99483    |   121684
        7  | 27:02.35 |  4:44.58 |    121685    |   143042
        8  | 31:47.18 |  5:29.07 |    143043    |   167724
        9  | 37:16.25 |  3:32.45 |    167725    |   183669
       10  | 40:48.70 |  3:35.18 |    183670    |   199812
Range status and errors
Selected range
     Filename F:\EAC\Acoustic Alchemy\Blue Chip (1989)\Acoustic Alchemy - Blue Chip.wav
     Peak level 100.0 %
     Range quality 99.9 %
     Test CRC D3BF329E
     Copy CRC D3BF329E
     Copy OK
No errors occurred
AccurateRip summary
Track  1  accurately ripped (confidence 4)  [C6142347]
Track  2  accurately ripped (confidence 4)  [478847E3]
Track  3  accurately ripped (confidence 4)  [6934D0E6]
Track  4  accurately ripped (confidence 4)  [F267FB6A]
Track  5  accurately ripped (confidence 4)  [37B62C01]
Track  6  accurately ripped (confidence 4)  [95ACF5B7]
Track  7  accurately ripped (confidence 4)  [41D199E2]
Track  8  accurately ripped (confidence 4)  [106D62E6]
Track  9  accurately ripped (confidence 4)  [487FDCC2]
Track 10  accurately ripped (confidence 4)  [01988817]
All tracks accurately ripped
End of status report
CD "Reference Point" GRD-9614 [1990], USA

01. Reference Point (4:30)
02. Missing Your Touch (4:42)
03. Take Five (4:38)
04. Same Road, Same Reason (4:53)
05. Make My Day (4:09)
06. Caravan Of Dreams (2:57)
07. Homecoming (5:31)
08. Cuban Heels (3:31)
09. Lullaby For The First Born (3:35)

EAC Log


Exact Audio Copy V0.99 prebeta 5 from 4. May 2009
EAC extraction logfile from 4. December 2009, 22:16
Acoustic Alchemy / Reference Point
Used drive  : HL-DT-STDVDRAM GH22NS50   Adapter: 3  ID: 1
Read mode               : Secure
Utilize accurate stream : Yes
Defeat audio cache      : Yes
Make use of C2 pointers : No
Read offset correction                      : 667
Overread into Lead-In and Lead-Out          : No
Fill up missing offset samples with silence : Yes
Delete leading and trailing silent blocks   : No
Null samples used in CRC calculations       : Yes
Used interface                              : Installed external ASPI interface
Used output format              : User Defined Encoder
Selected bitrate                : 128 kBit/s
Quality                         : High
Add ID3 tag                     : No
Command line compressor         : D:\Tools\Codecs\WavPack Frontend 2.0\wavpack.exe
Additional command line options : -h %s %d
TOC of the extracted CD
     Track |   Start  |  Length  | Start sector | End sector
    ---------------------------------------------------------
        1  |  0:00.32 |  4:31.50 |        32    |    20406
        2  |  4:32.07 |  4:44.63 |     20407    |    41769
        3  |  9:16.70 |  4:39.37 |     41770    |    62731
        4  | 13:56.32 |  4:52.00 |     62732    |    84631
        5  | 18:48.32 |  4:10.50 |     84632    |   103431
        6  | 22:59.07 |  3:00.63 |    103432    |   116994
        7  | 25:59.70 |  5:35.62 |    116995    |   142181
        8  | 31:35.57 |  3:29.33 |    142182    |   157889
        9  | 35:05.15 |  3:35.30 |    157890    |   174044
Range status and errors
Selected range
     Filename F:\EAC\Acoustic Alchemy\Reference Point (1990)\Acoustic Alchemy - Reference Point.wav
     Peak level 100.0 %
     Range quality 100.0 %
     Test CRC 3A0C678B
     Copy CRC 3A0C678B
     Copy OK
No errors occurred
AccurateRip summary
Track  1  accurately ripped (confidence 1)  [66F008B2]
Track  2  accurately ripped (confidence 1)  [BE84D4B0]
Track  3  accurately ripped (confidence 1)  [114DADFA]
Track  4  accurately ripped (confidence 1)  [54C2C63A]
Track  5  accurately ripped (confidence 1)  [0E56CF8A]
Track  6  accurately ripped (confidence 1)  [7124B701]
Track  7  accurately ripped (confidence 1)  [49D2F927]
Track  8  accurately ripped (confidence 1)  [A699F5AE]
Track  9  accurately ripped (confidence 1)  [22A278E8]
All tracks accurately ripped
End of status report
CD "Back On The Case" GRD-9648 [1991], USA

01. The Alchemist (3:54)
02. Jamaica Heartbeat (5:31)
03. Georgia Peach (4:23)
04. Playing For Time (6:05)
05. When The Lights Go Out (4:36)
06. Clear Air For Miles (6:34)
07. Fire Of The Heart (4:06)
08. Freeze Frame (4:02)
09. On The Case (3:57)
10. Break For The Border (4:53)

EAC Log


Exact Audio Copy V0.99 prebeta 5 from 4. May 2009
EAC extraction logfile from 7. December 2009, 13:52
Acoustic Alchemy / Back On The Case
Used drive  : HL-DT-STDVDRAM GH22NS50   Adapter: 3  ID: 1
Read mode               : Secure
Utilize accurate stream : Yes
Defeat audio cache      : Yes
Make use of C2 pointers : No
Read offset correction                      : 667
Overread into Lead-In and Lead-Out          : No
Fill up missing offset samples with silence : Yes
Delete leading and trailing silent blocks   : No
Null samples used in CRC calculations       : Yes
Used interface                              : Installed external ASPI interface
Used output format              : User Defined Encoder
Selected bitrate                : 128 kBit/s
Quality                         : High
Add ID3 tag                     : No
Command line compressor         : D:\Tools\Codecs\WavPack Frontend 2.0\wavpack.exe
Additional command line options : -h %s %d
TOC of the extracted CD
     Track |   Start  |  Length  | Start sector | End sector
    ---------------------------------------------------------
        1  |  0:00.32 |  3:55.00 |        32    |    17656
        2  |  3:55.32 |  5:33.50 |     17657    |    42681
        3  |  9:29.07 |  4:25.00 |     42682    |    62556
        4  | 13:54.07 |  6:03.68 |     62557    |    89849
        5  | 19:58.00 |  4:37.07 |     89850    |   110631
        6  | 24:35.07 |  6:36.63 |    110632    |   140394
        7  | 31:11.70 |  4:08.12 |    140395    |   159006
        8  | 35:20.07 |  4:03.63 |    159007    |   177294
        9  | 39:23.70 |  3:59.65 |    177295    |   195284
       10  | 43:23.60 |  4:54.60 |    195285    |   217394
Range status and errors
Selected range
     Filename F:\EAC\Acoustic Alchemy\Back On The Case (1991)\Acoustic Alchemy - Back On The Case.wav
     Peak level 99.8 %
     Range quality 99.9 %
     Test CRC AA14EF89
     Copy CRC AA14EF89
     Copy OK
No errors occurred
AccurateRip summary
Track  1  accurately ripped (confidence 3)  [FF6ECB9F]
Track  2  accurately ripped (confidence 3)  [F2C6C758]
Track  3  accurately ripped (confidence 3)  [CC147ED4]
Track  4  accurately ripped (confidence 3)  [2EF08DC5]
Track  5  accurately ripped (confidence 3)  [2AF512F6]
Track  6  accurately ripped (confidence 3)  [3A61700B]
Track  7  accurately ripped (confidence 3)  [0E022FE5]
Track  8  accurately ripped (confidence 3)  [73490CAB]
Track  9  accurately ripped (confidence 3)  [34BE6A86]
Track 10  accurately ripped (confidence 3)  [2B8C947C]
All tracks accurately ripped
End of status report
CD "Early Alchemy" GRD-9666 [1992], USA

01. Santiago (Webb) (4:20)
02. Sarah Victoria (Webb) (1:56)
03. Last Summer Song (Webb, Clyne) (3:22)
04. Slap It Down (Webb) (2:39)
05. Sira's Song (Webb) (3:39)
06. Moonstone (Webb, James) (1:48)
07. Wind It Up (Webb, Clyne, Twigg) (4:03)
08. Casino (Webb, James) (3:18)
09. Little Bercheres (Webb) (4:40)
10. Amanecer (James) (3:06)
11. Waiting For You (Webb) (3:25)
12. Return Flight (Webb) (3:23)
13. Daybreak (James) (2:56)
14. A Dream Of Fair Women (Webb, James) (2:19)

EAC Log


Exact Audio Copy V0.99 prebeta 5 from 4. May 2009
EAC extraction logfile from 4. December 2009, 23:10
Acoustic Alchemy / Early Alchemy
Used drive  : HL-DT-STDVDRAM GH22NS50   Adapter: 3  ID: 1
Read mode               : Secure
Utilize accurate stream : Yes
Defeat audio cache      : Yes
Make use of C2 pointers : No
Read offset correction                      : 667
Overread into Lead-In and Lead-Out          : No
Fill up missing offset samples with silence : Yes
Delete leading and trailing silent blocks   : No
Null samples used in CRC calculations       : Yes
Used interface                              : Installed external ASPI interface
Used output format              : User Defined Encoder
Selected bitrate                : 128 kBit/s
Quality                         : High
Add ID3 tag                     : No
Command line compressor         : D:\Tools\Codecs\WavPack Frontend 2.0\wavpack.exe
Additional command line options : -h %s %d
TOC of the extracted CD
     Track |   Start  |  Length  | Start sector | End sector
    ---------------------------------------------------------
        1  |  0:00.00 |  4:21.50 |         0    |    19624
        2  |  4:21.50 |  1:57.00 |     19625    |    28399
        3  |  6:18.50 |  3:23.25 |     28400    |    43649
        4  |  9:42.00 |  2:40.50 |     43650    |    55699
        5  | 12:22.50 |  3:40.62 |     55700    |    72261
        6  | 16:03.37 |  1:49.13 |     72262    |    80449
        7  | 17:52.50 |  4:05.00 |     80450    |    98824
        8  | 21:57.50 |  3:19.50 |     98825    |   113799
        9  | 25:17.25 |  4:41.60 |    113800    |   134934
       10  | 29:59.10 |  3:06.52 |    134935    |   148936
       11  | 33:05.62 |  3:26.73 |    148937    |   164459
       12  | 36:32.60 |  3:23.65 |    164460    |   179749
       13  | 39:56.50 |  2:57.50 |    179750    |   193074
       14  | 42:54.25 |  2:20.50 |    193075    |   203624
Range status and errors
Selected range
     Filename F:\EAC\Acoustic Alchemy\Early Alchemy (1992)\Acoustic Alchemy - Early Alchemy.wav
     Peak level 99.8 %
     Range quality 100.0 %
     Test CRC 94F3586C
     Copy CRC 94F3586C
     Copy OK
No errors occurred
AccurateRip summary
Track  1  accurately ripped (confidence 2)  [11598E3F]
Track  2  accurately ripped (confidence 2)  [F7009FA7]
Track  3  accurately ripped (confidence 2)  [C2A54553]
Track  4  accurately ripped (confidence 2)  [3F7D7A52]
Track  5  accurately ripped (confidence 2)  [DE917302]
Track  6  accurately ripped (confidence 2)  [46E12AEE]
Track  7  accurately ripped (confidence 2)  [B8CA15CD]
Track  8  accurately ripped (confidence 2)  [9EAAF444]
Track  9  accurately ripped (confidence 2)  [E7E03ED9]
Track 10  accurately ripped (confidence 2)  [697A8081]
Track 11  accurately ripped (confidence 2)  [B211E7B6]
Track 12  accurately ripped (confidence 2)  [FEE74E47]
Track 13  accurately ripped (confidence 2)  [25479EDC]
Track 14  accurately ripped (confidence 2)  [676FE85C]
All tracks accurately ripped
End of status report
CD "The New Edge" GRP 97112 [1993], Germany

01. Oceans Apart (5:36)
02. Notting Hill Two-Step (3:49)
03. Slow Ride Home (4:10)
04. Cool as a Rule (3:47)
05. Santa Câfé (4:24)
06. Arc-En-Ciel (3:19)
07. London Skyline (6:01)
08. Liaison (5:14)
09. Until Always (4:52)
10. Rive Gauche (3:06)
11. Act of Innocence (3:09)

EAC Log


Exact Audio Copy V0.99 prebeta 5 from 4. May 2009
EAC extraction logfile from 16. October 2009, 23:11
Acoustic Alchemy / The New Edge
Used drive  : ASUS    DRW-2014L1T   Adapter: 5  ID: 0
Read mode               : Secure
Utilize accurate stream : Yes
Defeat audio cache      : Yes
Make use of C2 pointers : No
Read offset correction                      : 6
Overread into Lead-In and Lead-Out          : No
Fill up missing offset samples with silence : Yes
Delete leading and trailing silent blocks   : No
Null samples used in CRC calculations       : Yes
Used interface                              : Native Win32 interface for Win NT & 2000
Used output format : Internal WAV Routines
Sample format      : 44.100 Hz; 16 Bit; Stereo
TOC of the extracted CD
     Track |   Start  |  Length  | Start sector | End sector
    ---------------------------------------------------------
        1  |  0:00.33 |  5:39.52 |        33    |    25509
        2  |  5:40.10 |  3:52.03 |     25510    |    42912
        3  |  9:32.13 |  4:13.57 |     42913    |    61944
        4  | 13:45.70 |  3:49.48 |     61945    |    79167
        5  | 17:35.43 |  4:27.27 |     79168    |    99219
        6  | 22:02.70 |  3:22.00 |     99220    |   114369
        7  | 25:24.70 |  6:06.15 |    114370    |   141834
        8  | 31:31.10 |  5:18.08 |    141835    |   165692
        9  | 36:49.18 |  4:54.42 |    165693    |   187784
       10  | 41:43.60 |  3:09.25 |    187785    |   201984
       11  | 44:53.10 |  3:10.23 |    201985    |   216257
Range status and errors
Selected range
     Filename E:\EAC\Acoustic Alchemy\The New Edge (1993)\Acoustic Alchemy - The New Edge.wav
     Peak level 95.0 %
     Range quality 100.0 %
     Test CRC 38117101
     Copy CRC 38117101
     Copy OK
No errors occurred
AccurateRip summary
Track  1  accurately ripped (confidence 4)  [D59C38B6]
Track  2  accurately ripped (confidence 5)  [4382AE1E]
Track  3  accurately ripped (confidence 4)  [207472A7]
Track  4  accurately ripped (confidence 4)  [9891FF0A]
Track  5  accurately ripped (confidence 4)  [CFAE0D7E]
Track  6  accurately ripped (confidence 4)  [1DB58A2F]
Track  7  accurately ripped (confidence 4)  [A82F5D2E]
Track  8  accurately ripped (confidence 4)  [5ABD8A94]
Track  9  accurately ripped (confidence 4)  [D9740622]
Track 10  accurately ripped (confidence 4)  [E605A2D7]
Track 11  accurately ripped (confidence 4)  [90F2E457]
All tracks accurately ripped
End of status report
CD "Against The Grain" GRD-9783 [1994], USA

01. Against The Grain (5:35)
02. Lazeez (4:50)
03. A Different Kind Of Freedom (6:17)
04. Lady Lynda (5:19)
05. Road Dogs (4:17)
06. Shoot The Loop (5:15)
07. Across The Golden Gate (5:10)
08. Papillon (6:36)
09. Silent Partner (4:27)
10. Nouveau Tango (5:04)

EAC Log


Exact Audio Copy V0.99 prebeta 5 from 4. May 2009
EAC extraction logfile from 3. December 2009, 17:21
Acoustic Alchemy / Against the Grain
Used drive  : HL-DT-STDVDRAM GH22NS50   Adapter: 3  ID: 1
Read mode               : Secure
Utilize accurate stream : Yes
Defeat audio cache      : Yes
Make use of C2 pointers : No
Read offset correction                      : 667
Overread into Lead-In and Lead-Out          : No
Fill up missing offset samples with silence : Yes
Delete leading and trailing silent blocks   : No
Null samples used in CRC calculations       : Yes
Used interface                              : Installed external ASPI interface
Used output format              : User Defined Encoder
Selected bitrate                : 128 kBit/s
Quality                         : High
Add ID3 tag                     : No
Command line compressor         : D:\Tools\Codecs\WavPack Frontend 2.0\wavpack.exe
Additional command line options : -h %s %d
TOC of the extracted CD
     Track |   Start  |  Length  | Start sector | End sector
    ---------------------------------------------------------
        1  |  0:00.32 |  5:38.70 |        32    |    25451
        2  |  5:39.27 |  4:54.25 |     25452    |    47526
        3  | 10:33.52 |  6:20.48 |     47527    |    76074
        4  | 16:54.25 |  5:22.45 |     76075    |   100269
        5  | 22:16.70 |  4:19.47 |    100270    |   119741
        6  | 26:36.42 |  5:19.73 |    119742    |   143739
        7  | 31:56.40 |  5:12.55 |    143740    |   167194
        8  | 37:09.20 |  6:39.52 |    167195    |   197171
        9  | 43:48.72 |  4:30.40 |    197172    |   217461
       10  | 48:19.37 |  5:04.70 |    217462    |   240331
Range status and errors
Selected range
     Filename F:\EAC\Acoustic Alchemy\Against The Grain (1994)\Acoustic Alchemy - Against the Grain.wav
     Peak level 100.0 %
     Range quality 99.9 %
     Test CRC 07DA6179
     Copy CRC 07DA6179
     Copy OK
No errors occurred
AccurateRip summary
Track  1  accurately ripped (confidence 2)  [B9A180CB]
Track  2  accurately ripped (confidence 2)  [D91D817D]
Track  3  accurately ripped (confidence 2)  [31BB6291]
Track  4  accurately ripped (confidence 2)  [94D918E5]
Track  5  accurately ripped (confidence 2)  [AEE293AE]
Track  6  accurately ripped (confidence 2)  [22C9F9A6]
Track  7  accurately ripped (confidence 3)  [93DAA4ED]
Track  8  accurately ripped (confidence 2)  [B24B80AB]
Track  9  accurately ripped (confidence 2)  [7500B542]
Track 10  accurately ripped (confidence 2)  [45281BDF]
All tracks accurately ripped
End of status report
CD "Arcanum" GRD-9848 [1996], USA

01. Columbia (4:48)
02. Homecoming (5:40)
03. Chance Meeting (3:48)
04. Lazeez (5:49)
05. Mr. Chow (3:13)
06. Same Road Same Reason (4:14)
07. Casino (6:06)
08. Something She Said (3:55)
09. Jamaica Heartbeat (3:53)
10. Catalina Kiss (4:21)
11. Reference Point (4:21)
12. Hearts In Chains (3:21)

EAC Log


Exact Audio Copy V0.99 prebeta 5 from 4. May 2009
EAC extraction logfile from 7. December 2009, 14:09
Acoustic Alchemy / Arcanum
Used drive  : HL-DT-STDVDRAM GH22NS50   Adapter: 3  ID: 1
Read mode               : Secure
Utilize accurate stream : Yes
Defeat audio cache      : Yes
Make use of C2 pointers : No
Read offset correction                      : 667
Overread into Lead-In and Lead-Out          : No
Fill up missing offset samples with silence : Yes
Delete leading and trailing silent blocks   : No
Null samples used in CRC calculations       : Yes
Used interface                              : Installed external ASPI interface
Used output format              : User Defined Encoder
Selected bitrate                : 128 kBit/s
Quality                         : High
Add ID3 tag                     : No
Command line compressor         : D:\Tools\Codecs\WavPack Frontend 2.0\wavpack.exe
Additional command line options : -h %s %d
TOC of the extracted CD
     Track |   Start  |  Length  | Start sector | End sector
    ---------------------------------------------------------
        1  |  0:00.00 |  4:50.63 |         0    |    21812
        2  |  4:50.63 |  5:42.42 |     21813    |    47504
        3  | 10:33.30 |  3:50.28 |     47505    |    64782
        4  | 14:23.58 |  5:50.62 |     64783    |    91094
        5  | 20:14.45 |  3:15.68 |     91095    |   105787
        6  | 23:30.38 |  4:15.62 |    105788    |   124974
        7  | 27:46.25 |  6:08.58 |    124975    |   152632
        8  | 33:55.08 |  3:57.62 |    152633    |   170469
        9  | 37:52.70 |  3:56.00 |    170470    |   188169
       10  | 41:48.70 |  4:24.18 |    188170    |   207987
       11  | 46:13.13 |  4:23.27 |    207988    |   227739
       12  | 50:36.40 |  3:22.53 |    227740    |   242942
Range status and errors
Selected range
     Filename F:\EAC\Acoustic Alchemy\Arcanum (1996)\Acoustic Alchemy - Arcanum.wav
     Peak level 100.0 %
     Range quality 100.0 %
     Test CRC E3957649
     Copy CRC E3957649
     Copy OK
No errors occurred
AccurateRip summary
Track  1  accurately ripped (confidence 3)  [9CA08A16]
Track  2  accurately ripped (confidence 3)  [36737B93]
Track  3  accurately ripped (confidence 3)  [1A404BB6]
Track  4  accurately ripped (confidence 3)  [448F3CFD]
Track  5  accurately ripped (confidence 3)  [DBBB85F4]
Track  6  accurately ripped (confidence 3)  [4D70ABDC]
Track  7  accurately ripped (confidence 3)  [BC97F8D0]
Track  8  accurately ripped (confidence 3)  [AD5DC8B9]
Track  9  accurately ripped (confidence 3)  [7D9ACFBF]
Track 10  accurately ripped (confidence 3)  [968CA23D]
Track 11  accurately ripped (confidence 3)  [EA1D9E73]
Track 12  accurately ripped (confidence 3)  [FC1D4436]
All tracks accurately ripped
End of status report
CD "Positive Thinking" GRD-9907 [1998], USA

01. Passionelle (4:40)
02. Rainwatching W.I. (4:42)
03. Cadaques (5:49)
04. The Five Card Trick (5:10)
05. Positive Thinking (4:21)
06. The Better Shoes (5:27)
07. Vapour Trails (4:29)
08. Augustrasse (6:46)
09. Time Gentlemen Please (4:37)
10. Limited Excess (6:10)

EAC Log


Exact Audio Copy V0.99 prebeta 5 from 4. May 2009
EAC extraction logfile from 7. December 2009, 1:21
Acoustic Alchemy / Positive Thinking ...
Used drive  : HL-DT-STDVDRAM GH22NS50   Adapter: 3  ID: 1
Read mode               : Secure
Utilize accurate stream : Yes
Defeat audio cache      : Yes
Make use of C2 pointers : No
Read offset correction                      : 667
Overread into Lead-In and Lead-Out          : No
Fill up missing offset samples with silence : Yes
Delete leading and trailing silent blocks   : No
Null samples used in CRC calculations       : Yes
Used interface                              : Installed external ASPI interface
Used output format              : User Defined Encoder
Selected bitrate                : 128 kBit/s
Quality                         : High
Add ID3 tag                     : No
Command line compressor         : D:\Tools\Codecs\WavPack Frontend 2.0\wavpack.exe
Additional command line options : -h %s %d
TOC of the extracted CD
     Track |   Start  |  Length  | Start sector | End sector
    ---------------------------------------------------------
        1  |  0:00.00 |  4:42.60 |         0    |    21209
        2  |  4:42.60 |  4:43.37 |     21210    |    42471
        3  |  9:26.22 |  5:51.55 |     42472    |    68851
        4  | 15:18.02 |  5:12.45 |     68852    |    92296
        5  | 20:30.47 |  4:21.50 |     92297    |   111921
        6  | 24:52.22 |  5:29.55 |    111922    |   136651
        7  | 30:22.02 |  4:32.30 |    136652    |   157081
        8  | 34:54.32 |  6:47.68 |    157082    |   187674
        9  | 41:42.25 |  4:40.17 |    187675    |   208691
       10  | 46:22.42 |  6:13.25 |    208692    |   236691
Range status and errors
Selected range
     Filename F:\EAC\Acoustic Alchemy\Positive Thinking (1998)\Acoustic Alchemy - Positive Thinking ....wav
     Peak level 100.0 %
     Range quality 100.0 %
     Test CRC D67CA4C3
     Copy CRC D67CA4C3
     Copy OK
No errors occurred
AccurateRip summary
Track  1  accurately ripped (confidence 1)  [A8243A98]
Track  2  not present in database
Track  3  accurately ripped (confidence 1)  [CDA06F32]
Track  4  accurately ripped (confidence 1)  [2F5CAC67]
Track  5  accurately ripped (confidence 1)  [855E31AD]
Track  6  accurately ripped (confidence 1)  [A857E765]
Track  7  accurately ripped (confidence 1)  [3C2C2271]
Track  8  accurately ripped (confidence 1)  [BFD2467E]
Track  9  accurately ripped (confidence 1)  [A5756725]
Track 10  accurately ripped (confidence 1)  [4A3D9811]
 9 track(s) accurately ripped
 1 track(s) not present in the AccurateRip database
Some tracks could not be verified as accurate
End of status report
CD "The Beautiful Game" HOMCD 48946 [2000], USA

01. Angel of The South (6:42)
02. The Panama Cat (5:02)
03. Trail Blazer (5:00)
04. The Beautiful Game (5:17)
05. Hats Of Magic (5:02)
06. Tete A Tete (4:44)
07. The Last Flamenco (4:19)
08. Kidstuff (4:18)
09. Big Sky Country (4:34)
10. Hold On To Your Heart (4:13)
11. Jubilation (4:37)
12. Big Sky Country (Nashville Version) (4:16)
13. Trail Blazer (Nashville Version) (4:44)

EAC Log


Exact Audio Copy V0.99 prebeta 5 from 4. May 2009
EAC extraction logfile from 3. December 2009, 18:51
Acoustic Alchemy / The Beautiful Game
Used drive  : HL-DT-STDVDRAM GH22NS50   Adapter: 3  ID: 1
Read mode               : Secure
Utilize accurate stream : Yes
Defeat audio cache      : Yes
Make use of C2 pointers : No
Read offset correction                      : 667
Overread into Lead-In and Lead-Out          : No
Fill up missing offset samples with silence : Yes
Delete leading and trailing silent blocks   : No
Null samples used in CRC calculations       : Yes
Used interface                              : Installed external ASPI interface
Used output format              : User Defined Encoder
Selected bitrate                : 128 kBit/s
Quality                         : High
Add ID3 tag                     : No
Command line compressor         : D:\Tools\Codecs\WavPack Frontend 2.0\wavpack.exe
Additional command line options : -h %s %d
TOC of the extracted CD
     Track |   Start  |  Length  | Start sector | End sector
    ---------------------------------------------------------
        1  |  0:00.00 |  6:41.17 |         0    |    30091
        2  |  6:41.17 |  5:04.58 |     30092    |    52949
        3  | 11:46.00 |  5:00.15 |     52950    |    75464
        4  | 16:46.15 |  5:16.27 |     75465    |    99191
        5  | 22:02.42 |  5:03.10 |     99192    |   121926
        6  | 27:05.52 |  4:43.43 |    121927    |   143194
        7  | 31:49.20 |  4:20.00 |    143195    |   162694
        8  | 36:09.20 |  4:19.62 |    162695    |   182181
        9  | 40:29.07 |  4:34.13 |    182182    |   202744
       10  | 45:03.20 |  4:11.67 |    202745    |   221636
       11  | 49:15.12 |  4:39.63 |    221637    |   242624
       12  | 53:55.00 |  4:17.45 |    242625    |   261944
       13  | 58:12.45 |  4:41.10 |    261945    |   283029
Range status and errors
Selected range
     Filename F:\EAC\Acoustic Alchemy\The Beautiful Game (2000)\Acoustic Alchemy - The Beautiful Game.wav
     Peak level 99.3 %
     Range quality 100.0 %
     Test CRC A5A2DDD1
     Copy CRC A5A2DDD1
     Copy OK
No errors occurred
AccurateRip summary
Track  1  accurately ripped (confidence 32)  [B2C77FEC]
Track  2  accurately ripped (confidence 32)  [049013E5]
Track  3  accurately ripped (confidence 32)  [515BF122]
Track  4  accurately ripped (confidence 32)  [7F6D3196]
Track  5  accurately ripped (confidence 32)  [8458E747]
Track  6  accurately ripped (confidence 32)  [0063D7DB]
Track  7  accurately ripped (confidence 31)  [023D0369]
Track  8  accurately ripped (confidence 31)  [2C51A2B9]
Track  9  accurately ripped (confidence 32)  [CAB7772A]
Track 10  accurately ripped (confidence 32)  [AE800C56]
Track 11  accurately ripped (confidence 30)  [6BB0DB85]
Track 12  accurately ripped (confidence 31)  [BE0A84C4]
Track 13  accurately ripped (confidence 31)  [5839660F]
All tracks accurately ripped
End of status report
CD "AArt" HOMCD 11103 [2001], USA

01. Wish You Were Near (4:03)
02. Aart Attack (3:59)
03. Flamoco Loco (4:03)
04. Tuff Puzzle (5:12)
05. Passion Play (4:44)
06. Senjo Wine (4:32)
07. Viva Che (3:42)
08. The Velvet Swing (5:34)
09. Robbie's Revenge (4:07)
10. Love At A Distance (4:12)
11. Code Name Pandora (5:08)
12. Nathan Road (5:06)
13. Cactus Blue (4:54)
14. The Wind Of Change (2:34)

EAC Log


Exact Audio Copy V0.99 prebeta 5 from 4. May 2009
EAC extraction logfile from 4. December 2009, 21:38
Acoustic Alchemy / Aart
Used drive  : HL-DT-STDVDRAM GH22NS50   Adapter: 3  ID: 1
Read mode               : Secure
Utilize accurate stream : Yes
Defeat audio cache      : Yes
Make use of C2 pointers : No
Read offset correction                      : 667
Overread into Lead-In and Lead-Out          : No
Fill up missing offset samples with silence : Yes
Delete leading and trailing silent blocks   : No
Null samples used in CRC calculations       : Yes
Used interface                              : Installed external ASPI interface
Used output format              : User Defined Encoder
Selected bitrate                : 128 kBit/s
Quality                         : High
Add ID3 tag                     : No
Command line compressor         : D:\Tools\Codecs\WavPack Frontend 2.0\wavpack.exe
Additional command line options : -h %s %d
TOC of the extracted CD
     Track |   Start  |  Length  | Start sector | End sector
    ---------------------------------------------------------
        1  |  0:00.00 |  4:05.00 |         0    |    18374
        2  |  4:05.00 |  4:01.20 |     18375    |    36469
        3  |  8:06.20 |  4:05.00 |     36470    |    54844
        4  | 12:11.20 |  5:14.50 |     54845    |    78444
        5  | 17:25.70 |  4:46.20 |     78445    |    99914
        6  | 22:12.15 |  4:33.00 |     99915    |   120389
        7  | 26:45.15 |  3:44.20 |    120390    |   137209
        8  | 30:29.35 |  5:36.00 |    137210    |   162409
        9  | 36:05.35 |  4:10.00 |    162410    |   181159
       10  | 40:15.35 |  4:14.50 |    181160    |   200259
       11  | 44:30.10 |  5:10.00 |    200260    |   223509
       12  | 49:40.10 |  5:07.60 |    223510    |   246594
       13  | 54:47.70 |  4:56.20 |    246595    |   268814
       14  | 59:44.15 |  2:34.00 |    268815    |   280364
Range status and errors
Selected range
     Filename F:\EAC\Acoustic Alchemy\Aart (2001)\Acoustic Alchemy - Aart.wav
     Peak level 99.8 %
     Range quality 100.0 %
     Test CRC 9700272D
     Copy CRC 9700272D
     Copy OK
No errors occurred
AccurateRip summary
Track  1  accurately ripped (confidence 28)  [9B1AD4C2]
Track  2  accurately ripped (confidence 28)  [51034DE7]
Track  3  accurately ripped (confidence 28)  [11EC811E]
Track  4  accurately ripped (confidence 28)  [5A677AAF]
Track  5  accurately ripped (confidence 28)  [FB390C43]
Track  6  accurately ripped (confidence 28)  [1FFD8671]
Track  7  accurately ripped (confidence 28)  [7323E0C6]
Track  8  accurately ripped (confidence 26)  [0EDACB6F]
Track  9  accurately ripped (confidence 26)  [84BB7B4D]
Track 10  accurately ripped (confidence 26)  [3DE2232A]
Track 11  accurately ripped (confidence 25)  [58DF1831]
Track 12  accurately ripped (confidence 26)  [6CB71874]
Track 13  accurately ripped (confidence 27)  [C8C6E38B]
Track 14  accurately ripped (confidence 27)  [8325C748]
All tracks accurately ripped
End of status report
CD "The Very Best of Acoustic Alchemy" 589 238-2 [2002], EU

01. Mr. Chow (3:06)
02. Catalina Kiss (4:34)
03. Ariane (4:53)
04. Jamaica Heartbeat (5:32)
05. Caravan Of Dreams (2:58)
06. Playing For Time (6:02)
07. Lazeez (4:52)
08. The Stone Circle (4:16)
09. The Alchemist (3:54)
10. Shoot The Loop (5:17)
11. Same Road, Same Reason (4:50)
12. Cool As A Rule (3:48)
13. Georgia Peach (4:23)
14. Casino (3:50)
15. Reference Point (4:30)
16. Red Dust And Spanish Lace (8:47)

EAC Log


Exact Audio Copy V0.99 prebeta 5 from 4. May 2009
EAC extraction logfile from 6. December 2009, 22:44
Acoustic Alchemy / The Very Best of Acoustic Alchemy
Used drive  : HL-DT-STDVDRAM GH22NS50   Adapter: 3  ID: 1
Read mode               : Secure
Utilize accurate stream : Yes
Defeat audio cache      : Yes
Make use of C2 pointers : No
Read offset correction                      : 667
Overread into Lead-In and Lead-Out          : No
Fill up missing offset samples with silence : Yes
Delete leading and trailing silent blocks   : No
Null samples used in CRC calculations       : Yes
Used interface                              : Installed external ASPI interface
Used output format              : User Defined Encoder
Selected bitrate                : 128 kBit/s
Quality                         : High
Add ID3 tag                     : No
Command line compressor         : D:\Tools\Codecs\WavPack Frontend 2.0\wavpack.exe
Additional command line options : -h %s %d
TOC of the extracted CD
     Track |   Start  |  Length  | Start sector | End sector
    ---------------------------------------------------------
        1  |  0:00.00 |  3:08.62 |         0    |    14161
        2  |  3:08.62 |  4:36.65 |     14162    |    34926
        3  |  7:45.52 |  4:56.22 |     34927    |    57148
        4  | 12:41.74 |  5:35.03 |     57149    |    82276
        5  | 18:17.02 |  3:01.12 |     82277    |    95863
        6  | 21:18.14 |  6:04.68 |     95864    |   123231
        7  | 27:23.07 |  4:54.35 |    123232    |   145316
        8  | 32:17.42 |  4:18.50 |    145317    |   164716
        9  | 36:36.17 |  3:56.60 |    164717    |   182476
       10  | 40:33.02 |  5:20.02 |    182477    |   206478
       11  | 45:53.04 |  4:53.18 |    206479    |   228471
       12  | 50:46.22 |  3:51.12 |    228472    |   245808
       13  | 54:37.34 |  4:26.28 |    245809    |   265786
       14  | 59:03.62 |  3:53.02 |    265787    |   283263
       15  | 62:56.64 |  4:32.68 |    283264    |   303731
       16  | 67:29.57 |  8:46.64 |    303732    |   343245
Range status and errors
Selected range
     Filename F:\EAC\Acoustic Alchemy\The Very Best Of (2002)\Acoustic Alchemy - The Very Best of Acoustic Alchemy.wav
     Peak level 99.9 %
     Range quality 100.0 %
     Test CRC 162D6053
     Copy CRC 162D6053
     Copy OK
No errors occurred
AccurateRip summary
Track  1  accurately ripped (confidence 10)  [021FB3CA]
Track  2  accurately ripped (confidence 10)  [9E3F9C5C]
Track  3  accurately ripped (confidence 10)  [0D950190]
Track  4  accurately ripped (confidence 10)  [7FB4B938]
Track  5  accurately ripped (confidence 10)  [2CEF77EC]
Track  6  accurately ripped (confidence 10)  [DDE79D0F]
Track  7  accurately ripped (confidence 10)  [3E01D756]
Track  8  accurately ripped (confidence 10)  [54E6CF21]
Track  9  accurately ripped (confidence 10)  [1334DBA5]
Track 10  accurately ripped (confidence 10)  [706DF62D]
Track 11  accurately ripped (confidence 10)  [4BB1E70F]
Track 12  accurately ripped (confidence 10)  [80176711]
Track 13  accurately ripped (confidence 10)  [6ADE8CBC]
Track 14  accurately ripped (confidence 10)  [82F96911]
Track 15  accurately ripped (confidence 10)  [D09F999F]
Track 16  accurately ripped (confidence 4)  [D301A5DA]
All tracks accurately ripped
End of status report
CD "Radio Contact" HOMCD 84285 [2003], USA

01. No Messin' (5:37)
02. Milo (4:47)
03. Shelter Island Drive (5:52)
04. Urban Cowboy (4:25)
05. El Camino Del Corazon (5:04)
06. Little Laughter (5:35)
07. Tinderbox (4:10)
08. What Comes Around... (4:20)
09. Coffee With Manni (2:40)
10. Shoestring (5:23)
11. Turn The Stars On (4:29)
12. Ya Tebya Lubliu (2:45)
13. Venus Morena (5:40)

EAC Log


Exact Audio Copy V0.99 prebeta 5 from 4. May 2009
EAC extraction logfile from 6. December 2009, 21:24
Acoustic Alchemy / Radio Contact
Used drive  : HL-DT-STDVDRAM GH22NS50   Adapter: 3  ID: 1
Read mode               : Secure
Utilize accurate stream : Yes
Defeat audio cache      : Yes
Make use of C2 pointers : No
Read offset correction                      : 667
Overread into Lead-In and Lead-Out          : No
Fill up missing offset samples with silence : Yes
Delete leading and trailing silent blocks   : No
Null samples used in CRC calculations       : Yes
Used interface                              : Installed external ASPI interface
Used output format              : User Defined Encoder
Selected bitrate                : 128 kBit/s
Quality                         : High
Add ID3 tag                     : No
Command line compressor         : D:\Tools\Codecs\WavPack Frontend 2.0\wavpack.exe
Additional command line options : -h %s %d
TOC of the extracted CD
     Track |   Start  |  Length  | Start sector | End sector
    ---------------------------------------------------------
        1  |  0:00.00 |  5:36.05 |         0    |    25204
        2  |  5:36.05 |  4:49.15 |     25205    |    46894
        3  | 10:25.20 |  5:55.24 |     46895    |    73543
        4  | 16:20.44 |  4:07.65 |     73544    |    92133
        5  | 20:28.34 |  5:11.26 |     92134    |   115484
        6  | 25:39.60 |  5:42.19 |    115485    |   141153
        7  | 31:22.04 |  4:15.37 |    141154    |   160315
        8  | 35:37.41 |  4:29.52 |    160316    |   180542
        9  | 40:07.18 |  2:49.17 |    180543    |   193234
       10  | 42:56.35 |  5:21.06 |    193235    |   217315
       11  | 48:17.41 |  4:34.66 |    217316    |   237931
       12  | 52:52.32 |  3:01.65 |    237932    |   251571
       13  | 55:54.22 |  4:13.26 |    251572    |   270572
Range status and errors
Selected range
     Filename F:\EAC\Acoustic Alchemy\Radio Contact (2003)\Acoustic Alchemy - Radio Contact.wav
     Peak level 98.3 %
     Range quality 100.0 %
     Test CRC A9736CDB
     Copy CRC A9736CDB
     Copy OK
No errors occurred
AccurateRip summary
Track  1  accurately ripped (confidence 24)  [CDA066D7]
Track  2  accurately ripped (confidence 24)  [D54F7A8F]
Track  3  accurately ripped (confidence 25)  [86A66AC3]
Track  4  accurately ripped (confidence 25)  [2E148CB7]
Track  5  accurately ripped (confidence 23)  [3B542463]
Track  6  accurately ripped (confidence 23)  [D92F4B1D]
Track  7  accurately ripped (confidence 24)  [1C559B17]
Track  8  accurately ripped (confidence 23)  [3B068CC9]
Track  9  accurately ripped (confidence 23)  [8EF21946]
Track 10  accurately ripped (confidence 24)  [F95267F3]
Track 11  accurately ripped (confidence 25)  [9AC70131]
Track 12  accurately ripped (confidence 25)  [102E40BB]
Track 13  accurately ripped (confidence 24)  [8BE30995]
All tracks accurately ripped
End of status report
CD "Sounds Of St. Lucia" ID3513AD [2003], USA

01. Trail Blazer (6:06)
02. Playing for Time (6:26)
03. Angel of the South (7:18)
04. The Beautiful Game (5:24)
05. Viva Che (4:15)
06. Cool as a Rule (4:17)
07. Red Dust & Spanish Lace (4:40)
08. Flamoco Loco (7:54)
09. The Wind of Change (2:34)
10. Augustrasse 18 (7:01)
11. Panama Cat (8:46)
12. Lazeez (6:44)

EAC Log


Exact Audio Copy V0.99 prebeta 5 from 4. May 2009
EAC extraction logfile from 3. December 2009, 21:20
Acoustic Alchemy / Sounds of St. Lucia
Used drive  : HL-DT-STDVDRAM GH22NS50   Adapter: 3  ID: 1
Read mode               : Secure
Utilize accurate stream : Yes
Defeat audio cache      : Yes
Make use of C2 pointers : No
Read offset correction                      : 667
Overread into Lead-In and Lead-Out          : No
Fill up missing offset samples with silence : Yes
Delete leading and trailing silent blocks   : No
Null samples used in CRC calculations       : Yes
Used interface                              : Installed external ASPI interface
Used output format              : User Defined Encoder
Selected bitrate                : 128 kBit/s
Quality                         : High
Add ID3 tag                     : No
Command line compressor         : D:\Tools\Codecs\WavPack Frontend 2.0\wavpack.exe
Additional command line options : -h %s %d
TOC of the extracted CD
     Track |   Start  |  Length  | Start sector | End sector
    ---------------------------------------------------------
        1  |  0:00.00 |  6:06.29 |         0    |    27478
        2  |  6:06.29 |  6:26.16 |     27479    |    56444
        3  | 12:32.45 |  7:18.55 |     56445    |    89349
        4  | 19:51.25 |  5:24.29 |     89350    |   113678
        5  | 25:15.54 |  4:15.65 |    113679    |   132868
        6  | 29:31.44 |  4:17.19 |    132869    |   152162
        7  | 33:48.63 |  4:40.68 |    152163    |   173230
        8  | 38:29.56 |  7:54.18 |    173231    |   208798
        9  | 46:23.74 |  2:34.28 |    208799    |   220376
       10  | 48:58.27 |  7:01.56 |    220377    |   252007
       11  | 56:00.08 |  8:46.56 |    252008    |   291513
       12  | 64:46.64 |  6:52.41 |    291514    |   322454
Range status and errors
Selected range
     Filename F:\EAC\Acoustic Alchemy\Sounds of St. Lucia (2003)\Acoustic Alchemy - Sounds of St. Lucia.wav
     Peak level 100.0 %
     Range quality 100.0 %
     Test CRC 232F9A78
     Copy CRC 232F9A78
     Copy OK
No errors occurred
AccurateRip summary
Track  1  cannot be verified as accurate (confidence 2)  [B2C5ACDB], AccurateRip returned [FF0C58C1]
Track  2  cannot be verified as accurate (confidence 2)  [DF8FD5A3], AccurateRip returned [65023B34]
Track  3  cannot be verified as accurate (confidence 2)  [9FC4B297], AccurateRip returned [A3D98B07]
Track  4  cannot be verified as accurate (confidence 2)  [25387E3B], AccurateRip returned [D82C764C]
Track  5  cannot be verified as accurate (confidence 2)  [55D65A28], AccurateRip returned [B53B2AAF]
Track  6  cannot be verified as accurate (confidence 2)  [CFF0B79B], AccurateRip returned [8AA8BF51]
Track  7  cannot be verified as accurate (confidence 3)  [09283A3E], AccurateRip returned [85262FF2]
Track  8  cannot be verified as accurate (confidence 3)  [7A72CFC8], AccurateRip returned [11B6E4BF]
Track  9  cannot be verified as accurate (confidence 3)  [E50352F6], AccurateRip returned [22C4F220]
Track 10  cannot be verified as accurate (confidence 2)  [FF5C4A20], AccurateRip returned [78760524]
Track 11  not present in database
Track 12  not present in database
10 track(s) could not be verified as accurate
 2 track(s) not present in the AccurateRip database
No tracks could be verified as accurate
You may have a different pressing from the one(s) in the database
End of status report
CD "Sounds Of St. Lucia" [Лицензия] [2003], RUS

01. Trail Blazer (6:06)
02. Playing for Time (6:26)
03. Angel of the South (7:18)
04. The Beautiful Game (5:24)
05. Viva Che (4:15)
06. Cool as a Rule (4:17)
07. Red Dust & Spanish Lace (4:40)
08. Flamoco Loco (7:54)
09. The Wind of Change (2:34)
10. Augustrasse 18 (7:01)
11. Panama Cat (8:46)
12. Lazeez (6:44)

EAC Log


Exact Audio Copy V0.99 prebeta 5 from 4. May 2009
EAC extraction logfile from 29. January 2011, 20:50
Acoustic Alchemy / Sounds of St. Lucia
Used drive  : HL-DT-STDVDRAM GH22NS50   Adapter: 3  ID: 1
Read mode               : Secure
Utilize accurate stream : Yes
Defeat audio cache      : Yes
Make use of C2 pointers : No
Read offset correction                      : 667
Overread into Lead-In and Lead-Out          : No
Fill up missing offset samples with silence : Yes
Delete leading and trailing silent blocks   : No
Null samples used in CRC calculations       : Yes
Used interface                              : Native Win32 interface for Win NT & 2000
Used output format : Internal WAV Routines
Sample format      : 44.100 Hz; 16 Bit; Stereo
TOC of the extracted CD
     Track |   Start  |  Length  | Start sector | End sector
    ---------------------------------------------------------
        1  |  0:00.00 |  6:06.29 |         0    |    27478
        2  |  6:06.29 |  6:26.16 |     27479    |    56444
        3  | 12:32.45 |  7:18.55 |     56445    |    89349
        4  | 19:51.25 |  5:24.29 |     89350    |   113678
        5  | 25:15.54 |  4:15.65 |    113679    |   132868
        6  | 29:31.44 |  4:17.19 |    132869    |   152162
        7  | 33:48.63 |  4:40.68 |    152163    |   173230
        8  | 38:29.56 |  7:54.18 |    173231    |   208798
        9  | 46:23.74 |  2:34.29 |    208799    |   220377
       10  | 48:58.28 |  7:01.55 |    220378    |   252007
       11  | 56:00.08 |  8:46.56 |    252008    |   291513
       12  | 64:46.64 |  6:52.41 |    291514    |   322454
Range status and errors
Selected range
     Filename F:\EAC\Acoustic Alchemy\Sounds of St. Lucia [Russia] (2003)\Acoustic Alchemy - Sounds of St. Lucia.wav
     Peak level 100.0 %
     Range quality 100.0 %
     Test CRC 99FB8211
     Copy CRC 99FB8211
     Copy OK
No errors occurred
AccurateRip summary
Track  1  accurately ripped (confidence 3)  [D17F95DF]
Track  2  accurately ripped (confidence 3)  [CF1E05A5]
Track  3  accurately ripped (confidence 3)  [2F886197]
Track  4  accurately ripped (confidence 2)  [D0C139C3]
Track  5  accurately ripped (confidence 3)  [ADD8EA24]
Track  6  accurately ripped (confidence 3)  [737A7250]
Track  7  accurately ripped (confidence 3)  [012ACABC]
Track  8  accurately ripped (confidence 3)  [EE96EDB3]
Track  9  accurately ripped (confidence 3)  [ADAAB993]
Track 10  accurately ripped (confidence 3)  [9FAE2A90]
Track 11  accurately ripped (confidence 3)  [1FA76C93]
Track 12  accurately ripped (confidence 3)  [13FDBF0C]
All tracks accurately ripped
End of status report
CD "American / English" 72435-79755-2-0 [2005], USA

01. The Crossing (4:40)
02. Say Yeah (3:37)
03. So Kylie (4:20)
04. Trinity (4:39)
05. The Detroit Shuffle (4:27)
06. Cherry Hill (3:25)
07. She Speaks American English (4:42)
08. Lilac Lane (4:47)
09. The 14 Carrot Cafe (4:07)
10. Get Up (Levantar Y Bailar) (3:55)
11. The Moon And The Sun (5:39)

EAC Log


Exact Audio Copy V0.99 prebeta 5 from 4. May 2009
EAC extraction logfile from 3. December 2009, 20:07
Acoustic Alchemy / American/English
Used drive  : HL-DT-STDVDRAM GH22NS50   Adapter: 3  ID: 1
Read mode               : Secure
Utilize accurate stream : Yes
Defeat audio cache      : Yes
Make use of C2 pointers : No
Read offset correction                      : 667
Overread into Lead-In and Lead-Out          : No
Fill up missing offset samples with silence : Yes
Delete leading and trailing silent blocks   : No
Null samples used in CRC calculations       : Yes
Used interface                              : Installed external ASPI interface
Used output format              : User Defined Encoder
Selected bitrate                : 128 kBit/s
Quality                         : High
Add ID3 tag                     : No
Command line compressor         : D:\Tools\Codecs\WavPack Frontend 2.0\wavpack.exe
Additional command line options : -h %s %d
TOC of the extracted CD
     Track |   Start  |  Length  | Start sector | End sector
    ---------------------------------------------------------
        1  |  0:00.00 |  4:42.74 |         0    |    21223
        2  |  4:42.74 |  3:39.50 |     21224    |    37698
        3  |  8:22.49 |  4:22.13 |     37699    |    57361
        4  | 12:44.62 |  4:41.61 |     57362    |    78497
        5  | 17:26.48 |  4:29.14 |     78498    |    98686
        6  | 21:55.62 |  3:27.20 |     98687    |   114231
        7  | 25:23.07 |  4:44.04 |    114232    |   135535
        8  | 30:07.11 |  4:49.29 |    135536    |   157239
        9  | 34:56.40 |  4:09.40 |    157240    |   175954
       10  | 39:06.05 |  3:57.69 |    175955    |   193798
       11  | 43:03.74 |  5:39.10 |    193799    |   219233
Range status and errors
Selected range
     Filename F:\EAC\Acoustic Alchemy\American English (2005)\Acoustic Alchemy - American English.wav
     Peak level 98.8 %
     Range quality 100.0 %
     Test CRC A87452F4
     Copy CRC A87452F4
     Copy OK
No errors occurred
AccurateRip summary
Track  1  accurately ripped (confidence 15)  [59D2FD49]
Track  2  accurately ripped (confidence 15)  [6F27EA06]
Track  3  accurately ripped (confidence 15)  [3F4A6E61]
Track  4  accurately ripped (confidence 15)  [422FD329]
Track  5  accurately ripped (confidence 15)  [D3AE7752]
Track  6  accurately ripped (confidence 15)  [2C7F4D05]
Track  7  accurately ripped (confidence 15)  [C389D66C]
Track  8  accurately ripped (confidence 15)  [58B261E9]
Track  9  accurately ripped (confidence 15)  [0445BE0D]
Track 10  accurately ripped (confidence 15)  [DB5D18E2]
Track 11  accurately ripped (confidence 14)  [E3C8734D]
All tracks accurately ripped
End of status report
CD "This Way" 0946 3 65124 2 6 [2007], USA

01. Love Is All There Is (4:22)
02. Ernie (6:34)
03. Who Knows (3:56)
04. Slampop (4:47)
05. Out Of Nowhere (3:38)
06. This Way (4:41)
07. Tied Up With String (5:12)
08. Only In My Dreams (5:52)
09. Carlos The King (5:52)
10. Egg (5:11)
11. Now I'm On My Way (4:44)

EAC Log


Exact Audio Copy V0.99 prebeta 5 from 4. May 2009
EAC extraction logfile from 7. December 2009, 0:57
Acoustic Alchemy / This Way
Used drive  : HL-DT-STDVDRAM GH22NS50   Adapter: 3  ID: 1
Read mode               : Secure
Utilize accurate stream : Yes
Defeat audio cache      : Yes
Make use of C2 pointers : No
Read offset correction                      : 667
Overread into Lead-In and Lead-Out          : No
Fill up missing offset samples with silence : Yes
Delete leading and trailing silent blocks   : No
Null samples used in CRC calculations       : Yes
Used interface                              : Installed external ASPI interface
Used output format              : User Defined Encoder
Selected bitrate                : 128 kBit/s
Quality                         : High
Add ID3 tag                     : No
Command line compressor         : D:\Tools\Codecs\WavPack Frontend 2.0\wavpack.exe
Additional command line options : -h %s %d
TOC of the extracted CD
     Track |   Start  |  Length  | Start sector | End sector
    ---------------------------------------------------------
        1  |  0:00.00 |  4:24.16 |         0    |    19815
        2  |  4:24.16 |  6:35.53 |     19816    |    49493
        3  | 10:59.69 |  3:56.17 |     49494    |    67210
        4  | 14:56.11 |  4:50.56 |     67211    |    89016
        5  | 19:46.67 |  3:39.73 |     89017    |   105514
        6  | 23:26.65 |  4:43.22 |    105515    |   126761
        7  | 28:10.12 |  5:14.04 |    126762    |   150315
        8  | 33:24.16 |  5:52.57 |    150316    |   176772
        9  | 39:16.73 |  5:53.06 |    176773    |   203253
       10  | 45:10.04 |  5:14.52 |    203254    |   226855
       11  | 50:24.56 |  4:46.02 |    226856    |   248307
Range status and errors
Selected range
     Filename F:\EAC\Acoustic Alchemy\This Way (2007)\Acoustic Alchemy - This Way.wav
     Peak level 100.0 %
     Range quality 100.0 %
     Test CRC F000841D
     Copy CRC F000841D
     Copy OK
No errors occurred
AccurateRip summary
Track  1  accurately ripped (confidence 20)  [8D9D328D]
Track  2  accurately ripped (confidence 20)  [B7C03855]
Track  3  accurately ripped (confidence 21)  [19E7CED7]
Track  4  accurately ripped (confidence 20)  [D2452DBD]
Track  5  accurately ripped (confidence 20)  [3F26313D]
Track  6  accurately ripped (confidence 20)  [DDFFC9F2]
Track  7  accurately ripped (confidence 20)  [63298973]
Track  8  accurately ripped (confidence 21)  [9F7B7390]
Track  9  accurately ripped (confidence 20)  [102190B8]
Track 10  accurately ripped (confidence 20)  [F89E01AE]
Track 11  accurately ripped (confidence 20)  [72569963]
All tracks accurately ripped
End of status report
01:15
81
RSS
Нет комментариев. Ваш будет первым!